.
Авторизация | Регистрация
Хочешь лучшие торренты? Добавь свой email!
Добавить

Торрент скачать бесплатно

  • support: webmaster@btracker.org
» » Холостяк (2018.06.03) SATRip (сезон 6, выпуск 13 - финал + Спецвыпуск) торрент скачать бесплатно


    Холостяк (2018.06.03) SATRip (сезон 6, выпуск 13 - финал + Спецвыпуск) торрент скачать бесплатно

    Опубликовал: Админ | Дата: 4-06-2018, 05:00 | .torrent скачали: 0

    Холостяк (2018.06.03) SATRip (сезон 6, выпуск 13 - финал + Спецвыпуск)Телекомпания: ТНТ
    Жанр: Реалити Шоу
    Холостяк: Егор Крид

    Описание

    В 6-м сезон любимого сериалае самого романтичного шоу ТНТ главным героем станет 23-летний певец Егор Крид! Самый завидный жених страны, а также артист музыкального лейбла Black Star предстанет перед зрителями шоу Холостяк.
    Именно за его сердце будут бороться самые красивые девушки России.
    Продолжительность: ~01: 37: 00
    Качество видео: SATRip
    Субтитры: Отсутствуют
    Видео: Xvid, 720x400(16: 9), 25.000 fps, ~1650 Kbps
    Аудио: MP3, 2 ch, 192 Kbps, CBR

    General
    Complete name : /media/vitali/MOVIES/Holostyak.S06/Holostyak.S06E13.XviD.SATRip.avi
    Format : AVI
    Format/Info : Audio Video Interleave
    File size : 993 MiB
    Duration : 1 h 14 min
    Overall bit rate : 1 852 kb/s
    Writing application : VirtualDubMod 1.5.10.3 (build 2550/release)
    Writing library : VirtualDubMod build 2550/release
    Video
    ID : 0
    Format : MPEG-4 Visual
    Format profile : Advanced Simple@L5
    Format settings, BVOP : 1
    Format settings, QPel : No
    Format settings, GMC : No warppoints
    Format settings, Matrix : Custom
    Codec ID : XVID
    Codec ID/Hint : XviD
    Duration : 1 h 14 min
    Bit rate : 1 650 kb/s
    Width : 720 pixels
    Height : 400 pixels
    Display aspect ratio : 16: 9
    Frame rate : 25.000 FPS
    Color space : YUV
    Chroma subsampling : 4: 2: 0
    Bit depth : 8 bits
    Scan type : Progressive
    Compression mode : Lossy
    Bits/(Pixel*Frame) : 0.229
    Stream size : 885 MiB (89%)
    Writing library : XviD 1.2.1 (UTC 2008-12-04)
    Audio
    ID : 1
    Format : MPEG Audio
    Format version : Version 1
    Format profile : Layer 3
    Mode : Joint stereo
    Mode extension : MS Stereo
    Codec ID : 55
    Codec ID/Hint : MP3
    Duration : 1 h 14 min
    Bit rate mode : Constant
    Bit rate : 192 kb/s
    Channel(s) : 2 channels
    Sampling rate : 48.0 kHz
    Compression mode : Lossy
    Stream size : 103 MiB (10%)
    Alignment : Aligned on interleaves
    Interleave, duration : 40 ms (1.00 video frame)
    Interleave, preload duration : 504 ms
    Writing library : LAME3.99r
    Encoding settings : -m j -V 4 -q 0 -lowpass 18.6 -b 192
    General
    Complete name : /media/vitali/MOVIES/Holostyak.S06/Special_luchshee.E01.XviD.SATRip.avi
    Format : AVI
    Format/Info : Audio Video Interleave
    File size : 289 MiB
    Duration : 21 min 49 s
    Overall bit rate : 1 852 kb/s
    Writing application : VirtualDubMod 1.5.10.3 |www.virtualdub-fr.org|| (build 2550/release)
    Writing library : VirtualDubMod build 2550/release
    Video
    ID : 0
    Format : MPEG-4 Visual
    Format profile : Advanced Simple@L5
    Format settings, BVOP : 1
    Format settings, QPel : No
    Format settings, GMC : No warppoints
    Format settings, Matrix : Custom
    Codec ID : XVID
    Codec ID/Hint : XviD
    Duration : 21 min 49 s
    Bit rate : 1 650 kb/s
    Width : 720 pixels
    Height : 400 pixels
    Display aspect ratio : 16: 9
    Frame rate : 25.000 FPS
    Color space : YUV
    Chroma subsampling : 4: 2: 0
    Bit depth : 8 bits
    Scan type : Progressive
    Compression mode : Lossy
    Bits/(Pixel*Frame) : 0.229
    Stream size : 258 MiB (89%)
    Writing library : XviD 1.2.1 (UTC 2008-12-04)
    Audio
    ID : 1
    Format : MPEG Audio
    Format version : Version 1
    Format profile : Layer 3
    Mode : Joint stereo
    Mode extension : MS Stereo
    Codec ID : 55
    Codec ID/Hint : MP3
    Duration : 21 min 49 s
    Bit rate mode : Constant
    Bit rate : 192 kb/s
    Channel(s) : 2 channels
    Sampling rate : 48.0 kHz
    Compression mode : Lossy
    Stream size : 30.0 MiB (10%)
    Alignment : Aligned on interleaves
    Interleave, duration : 40 ms (1.00 video frame)
    Interleave, preload duration : 504 ms
    Writing library : LAME3.99r
    Encoding settings : -m j -V 4 -q 0 -lowpass 18.6 -b 192

    Скриншоты для ознакомления



    Все одноименные релизы в Клубе
    Время раздачи: По возможности (до появления первых 3-5 скачавших)


    Холостяк (2018.06.03) SATRip (сезон 6, выпуск 13 - финал + Спецвыпуск)
    Рейтинг →
     (голосов: 1, оценка 5/5, голосовать можно 1 раз )

    Другие торренты по теме:

  • Холостяк. Сезон №3. Выпуск 8 (2015.04.25) SATRip скачать через торрент бесплатно
  • Холостяк. Сезон №3. Выпуск 9 (2015.05.02) SATRip скачать через торрент бесплатно
  • Холостяк. Сезон №3. Выпуск 10 (2015.05.10) SATRip скачать через торрент бесплатно
  • Холостяк. Сезон №3. Выпуск 11 (2015.05.16) SATRip скачать через торрент бесплатно
  • Холостяк. Сезон №3. Выпуск 12 (2015.05.23) SATRip скачать через торрент бесплатно
  • Холостяк. Сезон №3. Выпуск 13. Финал (2015.05.30) SATRip скачать через торрент бесплатно
  • Холостяк (2016) SATRip (сезон 4, выпуск 1) [обновляемая]
  • Холостяк (2017.03.11) SATRip (сезон 5, выпуск 1)


    • Комментарии (0):

      Информация

      Информация

        Посетители, находящиеся в группе Гости, не могут оставлять комментарии в данной новости.

        ↓ Меню




        ↓ Опрос

        Вы добавили сайт в закладки?
        Да
        Нет


        Top 10 за месяц (Передачи)