.
Авторизация | Регистрация
Хочешь лучшие торренты? Добавь свой email!
Добавить

Торрент скачать бесплатно

  • support: webmaster@btracker.org
» » Хоккей. НХЛ. Кубок Стэнли 2018. Финал. 1-й матч. Вегас Голден Найтс – Вашингтон Кэпиталз (28.05.2018) WEB-DLRip [H.264 / 720p-LQ] [hand made 60fps] [EN] торрент скачать бесплатно


    Хоккей. НХЛ. Кубок Стэнли 2018. Финал. 1-й матч. Вегас Голден Найтс – Вашингтон Кэпиталз (28.05.2018) WEB-DLRip [H.264 / 720p-LQ] [hand made 60fps] [EN] торрент скачать бесплатно

    Опубликовал: Админ | Дата: 1-06-2018, 05:00 | .torrent скачали: 0

    Хоккей. НХЛ. Кубок Стэнли 2018. Финал. 1-й матч. Вегас Голден Найтс – Вашингтон Кэпиталз (28.05.2018) WEB-DLRip [H.264 / 720p-LQ] [hand made 60fps] [EN]Телекомпания: NBC
    Жанр: Спорт

    Описание
    29 мая 2018 года, вторник. 03: 00 МСК
    НХЛ. Кубок Стэнли 2018.
    Финал. 1-й матч
    Вегас Голден Найтс – Вашингтон Кэпиталз
    Стадион: Ти-Мобайл Арена (Парадайс, США), 18575 зрителей (99 % при вместимости 18693)
    Главные судьи: Марк Джоэннетт (Канада), Вес МакКалей (Канада)
    Судьи на линии: Джонни Мюррей, Мэтт МакФерсон
    Релиз от: hereisit
    Продолжительность: 02: 23: 40
    Качество видео: WEB-DLRip
    Язык озвучки: Английский
    Субтитры: отсутствуют
    Видео: AVC/H.264, 1280x720 (16: 9), ~5472 Kbps, 59.94 fps
    Аудио: AAC, 2 ch, 48 kHz, ~128 Kbps
    Код: выделить все

    Общее
    Уникальный идентификатор : 42109470330294832788769482896529437262 (0x1FADFD2E2150D30B7382340E5230324E)
    Полное имя : F:SPORTХоккейNHL 2017-2018(28.05.2018)_NHL.SC 2018.Finals.1. Washington Capitals–Vegas Golden Knights_NBC.mkv
    Формат : Matroska
    Версия формата : Version 4/Version 2
    Размер файла : 5, 58 Гбайт
    Продолжительность : 2 ч. 23 м.
    Общий поток : 5559 Кбит/сек
    Дата кодирования : UTC 2018-05-31 11:55:01
    Программа кодирования : mkvmerge v23.0.0 (\'The Bride Said No\') 32-bit
    Библиотека кодирования : libebml v1.3.6 + libmatroska v1.4.9
    Видео
    Идентификатор : 1
    Формат : AVC
    Формат/Информация : Advanced Video Codec
    Профиль формата : High@L4
    Настройки формата : CABAC/4 Ref Frames
    Параметр CABAC формата : Да
    Параметр RefFrames формата : 4 кадра
    Идентификатор кодека : V_MPEG4/ISO/AVC
    Продолжительность : 2 ч. 23 м.
    Вид битрейта : Постоянный
    Битрейт : 5472 Кбит/сек
    Ширина : 1280 пикселей
    Высота : 720 пикселей
    Соотношение сторон : 16:9
    Режим частоты кадров : Постоянный
    Частота кадров : 59, 940 (60000/1001) кадров/сек
    Цветовое пространство : YUV
    Субдискретизация насыщенности : 4:2:0
    Битовая глубина : 8 бит
    Тип развёртки : Прогрессивная
    Бит/(Пиксели*Кадры) : 0.099
    Размер потока : 5, 45 Гбайт (98%)
    Default : Да
    Forced : Нет
    Аудио
    Идентификатор : 2
    Формат : AAC
    Формат/Информация : Advanced Audio Codec
    Профиль формата : LC
    Идентификатор кодека : A_AAC-2
    Продолжительность : 2 ч. 23 м.
    Битрейт : 125 Кбит/сек
    Каналы : 2 канала
    Расположение каналов : Front: L R
    Частота : 48, 0 КГц
    Частота кадров : 46, 875 кадров/сек (1024 SPF)
    Метод сжатия : С потерями
    Размер потока : 129 Мбайт (2%)
    Язык : English
    Default : Да
    Forced : Нет

    Скриншоты для ознакомления



    Все одноименные релизы в Клубе
    Время раздачи: 24/7 (около 1 месяца)


    Хоккей. НХЛ. Кубок Стэнли 2018. Финал. 1-й матч. Вегас Голден Найтс – Вашингтон Кэпиталз (28.05.2018) WEB-DLRip [H.264/720p-LQ] [hand made 60fps] [EN]
    Рейтинг →
     (голосов: 1, оценка 4/5, голосовать можно 1 раз )

    Другие торренты по теме:

  • Хоккей. Кубок Шпенглера 2015. 1 / 4 Финала. Автомобилист (Екатеринбург) - Адлер Мангейм (Германия) (29.12.2015) HDTV [H.264 / 1080i] скачать через торрент бесплатно
  • Хоккей. Кубок Шпенглера 2015. 1 / 4 финала. Йокерит (Финляндия) - Давос (Швейцария). (29.12.2015) HDTV [H.264 / 1080i] скачать через торрент бесплатно
  • Хоккей. Кубок Шпенглера 2015. 1 / 2 Финала. Лугано (Лугано, Швейцария) - Автомобилист (Екатеринбург) (30.12.2015) HDTV [H.264 / 1080i] скачать через торрент бесплатно
  • Хоккей. Кубок Шпенглера 2015. Финал. Канада - Лугано (Швейцария) (31.12.2015) HDTV [H.264 / 1080i] скачать через торрент бесплатно
  • Хоккей. Кубок мира 2016. Выставочный матч. Россия - Чехия (08.09.2016) HDTVRip [H.264 / 720p-LQ] [hand made 50 fps]
  • Хоккей. Кубок мира 2016. Выставочный матч. Финляндия - Швеция (08.09.2016) HDTVRip [H.264 / 720p-LQ] [hand made 50 fps]
  • Хоккей. Кубок мира 2016. Выставочный матч. Россия - Чехия (2016.09.08) HDTV [H.264 / 1080i]
  • Хоккей. Кубок мира 2016. Выставочный матч. Швеция - Финляндия (2016.09.08) HDTV [H.264 / 1080i]


    • Комментарии (0):

      Информация

      Информация

        Посетители, находящиеся в группе Гости, не могут оставлять комментарии в данной новости.

        ↓ Меню




        ↓ Опрос

        Вы добавили сайт в закладки?
        Да
        Нет


        Top 10 за месяц (Передачи)