.
Авторизация | Регистрация
Хочешь лучшие торренты? Добавь свой email!
Добавить

Торрент скачать бесплатно

  • support: webmaster@btracker.org
» » Волейбол. Лига Чемпионов 2017-2018. Мужчины. Финал 4-х. Полуфинал. ЗАКСА (Польша) — Кучине-Лубе (Италия) (2018) WEB-DLRip [H.264 / 720p-LQ] торрент скачать бесплатно


    Волейбол. Лига Чемпионов 2017-2018. Мужчины. Финал 4-х. Полуфинал. ЗАКСА (Польша) — Кучине-Лубе (Италия) (2018) WEB-DLRip [H.264 / 720p-LQ] торрент скачать бесплатно

    Опубликовал: Админ | Дата: 1-06-2018, 05:00 | .torrent скачали: 0

    Волейбол. Лига Чемпионов 2017-2018. Мужчины. Финал 4-х. Полуфинал. ЗАКСА (Польша) — Кучине-Лубе (Италия) (2018) WEB-DLRip [H.264 / 720p-LQ]Телекомпания: CEV TV
    Жанр: Спорт
    Комментаторы: Александр Аксёнов, Владимир Стецко (Матч ТВ)

    Описание
    12 мая 2018 года
    Лига Чемпионов 2017-2018. Мужчины. Финал четырёх. Казань (Россия)
    Полуфинал
    ЗАКСА (Кендзежин-Козле, Польша) — Кучине-Лубе (Чивитанова-Марке, Италия)
    Стадион: Баскет-холл (Казань, Россия)
    Судьи: Ласло Адлер (Венгрия), Сусана-Мария Родригес Ятива (Испания)
    Продолжительность: 02: 09: 04
    Качество видео: WEB-DLRip
    Язык озвучки: Русский
    Субтитры: отсутствуют
    Видео: AVC/H.264, 1280x720 (16: 9), ~3006 Kbps
    Аудио: AAC, 2 ch, 48 kHz, 128 Kbps

    Общее
    Уникальный идентификатор : 59047412978012224736031596211902840302 (0x2C6C1E3A71D7BF83F14D5A9142377DEE)
    Полное имя : F: SPORTВолейбол(12.05.2018)_CEV Мen ChL 2018.F-4.SF1. ZAKSA(Poland)–Cucine Lube(Italy).mkv
    Формат : Matroska
    Версия формата : Version 4/Version 2
    Размер файла : 2, 83 Гбайт
    Продолжительность : 2 ч. 9 м.
    Общий поток : 3137 Кбит/сек
    Дата кодирования : UTC 2018-05-24 14: 35: 30
    Программа кодирования : mkvmerge v23.0.0 (\'The Bride Said No\') 32-bit
    Библиотека кодирования : libebml v1.3.6 + libmatroska v1.4.9
    Видео
    Идентификатор : 1
    Формат : AVC
    Формат/Информация : Advanced Video Codec
    Профиль формата : High@L3.1
    Настройки формата : CABAC/4 Ref Frames
    Параметр CABAC формата : Да
    Параметр RefFrames формата : 4 кадра
    Идентификатор кодека : V_MPEG4/ISO/AVC
    Продолжительность : 2 ч. 9 м.
    Битрейт : 3006 Кбит/сек
    Ширина : 1280 пикселей
    Высота : 720 пикселей
    Соотношение сторон : 16: 9
    Режим частоты кадров : Постоянный
    Частота кадров : 25, 000 кадров/сек
    Цветовое пространство : YUV
    Субдискретизация насыщенности : 4: 2: 0
    Битовая глубина : 8 бит
    Тип развёртки : Прогрессивная
    Бит/(Пиксели*Кадры) : 0.130
    Размер потока : 2, 71 Гбайт (96%)
    Default : Да
    Forced : Нет
    Аудио
    Идентификатор : 2
    Формат : AAC
    Формат/Информация : Advanced Audio Codec
    Профиль формата : LC
    Идентификатор кодека : A_AAC-2
    Продолжительность : 2 ч. 9 м.
    Битрейт : 128 Кбит/сек
    Каналы : 2 канала
    Расположение каналов : Front: L R
    Частота : 48, 0 КГц
    Частота кадров : 46, 875 кадров/сек (1024 SPF)
    Метод сжатия : С потерями
    Размер потока : 118 Мбайт (4%)
    Язык : Russian
    Default : Да
    Forced : Нет

    Скриншоты для ознакомления



    Все одноименные релизы в Клубе
    Время раздачи: 24/7 (до 1 месяца)


    Волейбол. Лига Чемпионов 2017-2018. Мужчины. Финал 4-х. Полуфинал. ЗАКСА (Польша) — Кучине-Лубе (Италия) (2018) WEB-DLRip [H.264/720p-LQ]
    Рейтинг →
     (голосов: 1, оценка 5/5, голосовать можно 1 раз )

    Другие торренты по теме:

  • Волейбол. Лига Чемпионов 2016-2017. Мужчины. Плей-офф 12. 1-й матч. Аркас (Турция) — Динамо (Россия) (15.03.2017) HDTVRip [H.264 / 720p-LQ]
  • Волейбол. Лига Чемпионов 2016-2017. Мужчины. Плей-офф 12. 1-й матч. Белогорье (Россия) — ЗАКСА (Польша) (15.03.2017) HDTVRip [H.264 / 720p-LQ] [hand made 50fps]
  • Волейбол. Лига Чемпионов 2016-2017. Мужчины. Плей-офф 12. 1-й матч. Кнак (Бельгия) — Зенит (Россия) (14.03.2017) HDTVRip [H.264 / 720p-LQ] [hand made 50fps]
  • Волейбол. Лига Чемпионов 2016-2017. Мужчины. Плей-офф-Раунд 12. 2-й матч. Зенит (Россия) — Кнак (Бельгия) (22.03.2017) HDTVRip [H.264 / 720p-LQ] [hand made 50fps]
  • Волейбол. Лига Чемпионов 2016-2017. Мужчины. Плей-офф-Раунд 12. 2-й матч. ЗАКСА (Польша) — Белогорье (Россия) (22.03.2017) WEB-DL [H.264 / 720p-LQ]
  • Волейбол. Лига Чемпионов 2016-2017. Мужчины. Плей-офф-Раунд 12. 2-й матч. Динамо (Россия) — Аркас (Турция) (21.03.2017) HDTVRip [H.264 / 720p-LQ] [hand made 50fps]
  • Волейбол. Лига Чемпионов 2016-2017. Женщины. Плей-офф-6. 1-й матч. Экзачибаси ВитрА (Турция) — Фенербахче (Турция) (23.03.2017) WEB-DLRip [H.264 / 720p-LQ] [INT]
  • Волейбол. Лига Чемпионов 2016-2017. Женщины. Плей-офф-6. 1-й матч. Лю Джо Норммекканика (Италия) — Динамо (Россия) (22.03.2017) HDTVRip [H.264 / 720p-LQ] [hand made 50fps]


    • Комментарии (0):

      Информация

      Информация

        Посетители, находящиеся в группе Гости, не могут оставлять комментарии в данной новости.

        ↓ Меню




        ↓ Опрос

        Вы добавили сайт в закладки?
        Да
        Нет


        Top 10 за месяц (Передачи)