.
Авторизация | Регистрация
Хочешь лучшие торренты? Добавь свой email!
Добавить

Торрент скачать бесплатно

  • support: webmaster@btracker.org
» » Волейбол. Лига Чемпионов 2017-2018. Мужчины. Финал 4-х. Полуфинал. Сир Сафети (Италия) — Зенит-Казань (Россия) (2018) HDTVRip [H.264 / 720p-LQ] [hand made 50fps] торрент скачать бесплатно


    Волейбол. Лига Чемпионов 2017-2018. Мужчины. Финал 4-х. Полуфинал. Сир Сафети (Италия) — Зенит-Казань (Россия) (2018) HDTVRip [H.264 / 720p-LQ] [hand made 50fps] торрент скачать бесплатно

    Опубликовал: Админ | Дата: 1-06-2018, 05:00 | .torrent скачали: 0

    Волейбол. Лига Чемпионов 2017-2018. Мужчины. Финал 4-х. Полуфинал. Сир Сафети (Италия) — Зенит-Казань (Россия) (2018) HDTVRip [H.264 / 720p-LQ] [hand made 50fps]Телекомпания: Матч ТВ HD
    Жанр: Спорт
    Комментаторы: Алексей Мельников, Владимир Стецко

    Описание
    12 мая 2018 года
    Лига Чемпионов 2017-2018. Мужчины. Финал четырёх. Казань (Россия)
    Полуфинал
    Сир Сафети (Перуджа, Италия) — Зенит-Казань (Казань, Россия)
    Стадион: Баскет-холл (Казань, Россия)
    Судьи: Эпаминондас Геротодорос (Греция), Фабрис Колладос (Франция)
    Продолжительность: 01: 26: 46
    Качество видео: HDTVRip
    Язык озвучки: Русский
    Субтитры: отсутствуют
    Видео: AVC/H.264, 1280x720 (16: 9), ~3500 Kbps, 50 fps
    Аудио: AAC, 2 ch, 48 kHz, 128 Kbps

    Общее
    Уникальный идентификатор : 246764403260644321026021698616409227436 (0xB9A51868852E1BF1B4C960C15DF880AC)
    Полное имя : F: SPORTВолейбол(12.05.2018)_CEV Мen ChL 2018.F-4.SF2. Sir Safety(Italy)–Zenit Kazan(Russia).mkv
    Формат : Matroska
    Версия формата : Version 4/Version 2
    Размер файла : 2, 21 Гбайт
    Продолжительность : 1 ч. 26 м.
    Общий поток : 3650 Кбит/сек
    Дата кодирования : UTC 2018-05-12 16: 52: 56
    Программа кодирования : mkvmerge v8.3.0 (\'Over the Horizon\') 64bit
    Библиотека кодирования : libebml v1.3.1 + libmatroska v1.4.2
    Видео
    Идентификатор : 1
    Формат : AVC
    Формат/Информация : Advanced Video Codec
    Профиль формата : High@L3.2
    Настройки формата : CABAC/4 Ref Frames
    Параметр CABAC формата : Да
    Параметр RefFrames формата : 4 кадра
    Идентификатор кодека : V_MPEG4/ISO/AVC
    Продолжительность : 1 ч. 26 м.
    Битрейт : 3500 Кбит/сек
    Ширина : 1280 пикселей
    Высота : 720 пикселей
    Соотношение сторон : 16: 9
    Режим частоты кадров : Постоянный
    Частота кадров : 50, 000 кадров/сек
    Цветовое пространство : YUV
    Субдискретизация насыщенности : 4: 2: 0
    Битовая глубина : 8 бит
    Тип развёртки : Прогрессивная
    Бит/(Пиксели*Кадры) : 0.076
    Размер потока : 2, 13 Гбайт (96%)
    Библиотека кодирования : x264 core 146 r2538 121396c
    Настройки программы : cabac=1/ref=3/deblock=1: 0: 0/analyse=0x3: 0x113/me=hex/subme=7/psy=1/psy_rd=1.00: 0.00/mixed_ref=1/me_range=16/chroma_me=1/trellis=1/8x8dct=1/cqm=0/deadzone=21, 11/fast_pskip=1/chroma_qp_offset=-2/threads=12/lookahead_threads=2/sliced_threads=0/nr=0/decimate=1/interlaced=0/bluray_compat=0/constrained_intra=0/bframes=3/b_pyramid=2/b_adapt=1/b_bias=0/direct=1/weightb=1/open_gop=0/weightp=2/keyint=250/keyint_min=25/scenecut=40/intra_refresh=0/rc_lookahead=40/rc=abr/mbtree=1/bitrate=3500/ratetol=1.0/qcomp=0.60/qpmin=0/qpmax=69/qpstep=4/ip_ratio=1.40/aq=1: 1.00
    Default : Да
    Forced : Нет
    Аудио
    Идентификатор : 2
    Формат : AAC
    Формат/Информация : Advanced Audio Codec
    Профиль формата : LC
    Идентификатор кодека : A_AAC-2
    Продолжительность : 1 ч. 26 м.
    Битрейт : 128 Кбит/сек
    Каналы : 2 канала
    Расположение каналов : Front: L R
    Частота : 48, 0 КГц
    Частота кадров : 46, 875 кадров/сек (1024 SPF)
    Метод сжатия : С потерями
    Задержка видео : 9 мс.
    Размер потока : 79, 4 Мбайт (4%)
    Default : Да
    Forced : Нет

    Скриншоты для ознакомления



    Все одноименные релизы в Клубе
    Время раздачи: 24/7 (до 1 месяца)


    Волейбол. Лига Чемпионов 2017-2018. Мужчины. Финал 4-х. Полуфинал. Сир Сафети (Италия) — Зенит-Казань (Россия) (2018) HDTVRip [H.264/720p-LQ] [hand made 50fps]
    Рейтинг →
     (голосов: 1, оценка 4/5, голосовать можно 1 раз )

    Другие торренты по теме:

  • Волейбол. Лига Чемпионов 2016-2017. Мужчины. Плей-офф 12. 1-й матч. Аркас (Турция) — Динамо (Россия) (15.03.2017) HDTVRip [H.264 / 720p-LQ]
  • Волейбол. Лига Чемпионов 2016-2017. Мужчины. Плей-офф 12. 1-й матч. Белогорье (Россия) — ЗАКСА (Польша) (15.03.2017) HDTVRip [H.264 / 720p-LQ] [hand made 50fps]
  • Волейбол. Лига Чемпионов 2016-2017. Мужчины. Плей-офф 12. 1-й матч. Кнак (Бельгия) — Зенит (Россия) (14.03.2017) HDTVRip [H.264 / 720p-LQ] [hand made 50fps]
  • Волейбол. Лига Чемпионов 2016-2017. Мужчины. Плей-офф-Раунд 12. 2-й матч. Зенит (Россия) — Кнак (Бельгия) (22.03.2017) HDTVRip [H.264 / 720p-LQ] [hand made 50fps]
  • Волейбол. Лига Чемпионов 2016-2017. Мужчины. Плей-офф-Раунд 12. 2-й матч. ЗАКСА (Польша) — Белогорье (Россия) (22.03.2017) WEB-DL [H.264 / 720p-LQ]
  • Волейбол. Лига Чемпионов 2016-2017. Мужчины. Плей-офф-Раунд 12. 2-й матч. Динамо (Россия) — Аркас (Турция) (21.03.2017) HDTVRip [H.264 / 720p-LQ] [hand made 50fps]
  • Волейбол. Лига Чемпионов 2016-2017. Женщины. Плей-офф-6. 1-й матч. Экзачибаси ВитрА (Турция) — Фенербахче (Турция) (23.03.2017) WEB-DLRip [H.264 / 720p-LQ] [INT]
  • Волейбол. Лига Чемпионов 2016-2017. Женщины. Плей-офф-6. 1-й матч. Лю Джо Норммекканика (Италия) — Динамо (Россия) (22.03.2017) HDTVRip [H.264 / 720p-LQ] [hand made 50fps]


    • Комментарии (0):

      Информация

      Информация

        Посетители, находящиеся в группе Гости, не могут оставлять комментарии в данной новости.

        ↓ Меню




        ↓ Опрос

        Вы добавили сайт в закладки?
        Да
        Нет


        Top 10 за месяц (Передачи)