.
Авторизация | Регистрация
Хочешь лучшие торренты? Добавь свой email!
Добавить

Торрент скачать бесплатно

  • support: webmaster@btracker.org
» » Хоккей. НХЛ. Кубок Стэнли 2018. Финал. 2-й матч. Вегас Голден Найтс – Вашингтон Кэпиталз (30.05.2018) HDTVRip [H.264 / 720p-LQ] [hand made 50fps] торрент скачать бесплатно


    Хоккей. НХЛ. Кубок Стэнли 2018. Финал. 2-й матч. Вегас Голден Найтс – Вашингтон Кэпиталз (30.05.2018) HDTVRip [H.264 / 720p-LQ] [hand made 50fps] торрент скачать бесплатно

    Опубликовал: Админ | Дата: 1-06-2018, 05:00 | .torrent скачали: 0

    Хоккей. НХЛ. Кубок Стэнли 2018. Финал. 2-й матч. Вегас Голден Найтс – Вашингтон Кэпиталз (30.05.2018) HDTVRip [H.264 / 720p-LQ] [hand made 50fps]Телекомпания: Eurosport Gold
    Жанр: Спорт
    Комментаторы: Александр Кузмак, Андрей Юртаев

    Описание
    31 мая 2018 года, четверг. 03: 00 МСК
    НХЛ. Кубок Стэнли 2018.
    Финал. 2-й матч
    Вегас Голден Найтс – Вашингтон Кэпиталз
    Стадион: Ти-Мобайл Арена (Парадайс, США), 18702 зрителя (100 % при вместимости 18693)
    Главные судьи: Крис Руни (США), Келли Сазерлэнд (Канада)
    Судьи на линии: Грег Деворски, Дерек Эмилл
    Релиз от: Тотти17879
    Продолжительность: 02: 11: 08
    Качество видео: HDTVRip
    Язык озвучки: Русский
    Субтитры: отсутствуют
    Видео: AVC/H.264, 1280x720 (16: 9), ~3500 Kbps, 50 fps
    Аудио: AAC, 2 ch, 48 kHz, ~128 Kbps
    Код: выделить все

    Общее
    Уникальный идентификатор : 218200189309734504645372268396183385564 (0xA427D3EDBB7CC9D88CC7948E3B9175DC)
    Полное имя : F:SPORTХоккейNHL 2017-2018(30.05.2018)_NHL.Stanley Cup 2018.Finals.2. Washington Capitals–Vegas Golden Knights.mkv
    Формат : Matroska
    Версия формата : Version 4/Version 2
    Размер файла : 3, 33 Гбайт
    Продолжительность : 2 ч. 11 м.
    Общий поток : 3636 Кбит/сек
    Дата кодирования : UTC 2018-05-31 02:13:27
    Программа кодирования : mkvmerge v8.3.0 (\'Over the Horizon\') 64bit
    Библиотека кодирования : libebml v1.3.1 + libmatroska v1.4.2
    Видео
    Идентификатор : 1
    Формат : AVC
    Формат/Информация : Advanced Video Codec
    Профиль формата :High@L3.2
    Настройки формата : CABAC/4 Ref Frames
    Параметр CABAC формата : Да
    Параметр RefFrames формата : 4 кадра
    Идентификатор кодека : V_MPEG4/ISO/AVC
    Продолжительность : 2 ч. 11 м.
    Битрейт : 3500 Кбит/сек
    Ширина : 1280 пикселей
    Высота : 720 пикселей
    Соотношение сторон : 16:9
    Режим частоты кадров : Постоянный
    Частота кадров : 50, 000 кадров/сек
    Цветовое пространство : YUV
    Субдискретизация насыщенности : 4:2:0
    Битовая глубина : 8 бит
    Тип развёртки : Прогрессивная
    Бит/(Пиксели*Кадры) : 0.076
    Размер потока : 3, 21 Гбайт (96%)
    Библиотека кодирования : x264 core 146 r2538 121396c
    Настройки программы : cabac=1/ref=3/deblock=1:0:0/analyse=0x3:0x113/me=hex/subme=7/psy=1/psy_rd=1.00:0.00/mixed_ref=1/me_range=16/chroma_me=1/trellis=1/8x8dct=1/cqm=0/deadzone=21, 11/fast_pskip=1/chroma_qp_offset=-2/threads=12/lookahead_threads=2/sliced_threads=0/nr=0/decimate=1/interlaced=0/bluray_compat=0/constrained_intra=0/bframes=3/b_pyramid=2/b_adapt=1/b_bias=0/direct=1/weightb=1/open_gop=0/weightp=2/keyint=250/keyint_min=25/scenecut=40/intra_refresh=0/rc_lookahead=40/rc=abr/mbtree=1/bitrate=3500/ratetol=1.0/qcomp=0.60/qpmin=0/qpmax=69/qpstep=4/ip_ratio=1.40/aq=1:1.00
    Default : Да
    Forced : Нет
    Аудио
    Идентификатор : 2
    Формат : AAC
    Формат/Информация : Advanced Audio Codec
    Профиль формата : LC
    Идентификатор кодека : A_AAC-2
    Продолжительность : 2 ч. 11 м.
    Битрейт : 128 Кбит/сек
    Каналы : 2 канала
    Расположение каналов : Front: L R
    Частота : 48, 0 КГц
    Частота кадров : 46, 875 кадров/сек (1024 SPF)
    Метод сжатия : С потерями
    Задержка видео : 9 мс.
    Размер потока : 120 Мбайт (4%)
    Default : Да
    Forced : Нет

    Скриншоты для ознакомления



    Все одноименные релизы в Клубе
    Время раздачи: 24/7 (около 1 месяца)


    Хоккей. НХЛ. Кубок Стэнли 2018. Финал. 2-й матч. Вегас Голден Найтс – Вашингтон Кэпиталз (30.05.2018) HDTVRip [H.264/720p-LQ] [hand made 50fps]
    Рейтинг →
     (голосов: 1, оценка 3/5, голосовать можно 1 раз )

    Другие торренты по теме:

  • Хоккей. Кубок Шпенглера 2015. 1 / 4 Финала. Автомобилист (Екатеринбург) - Адлер Мангейм (Германия) (29.12.2015) HDTV [H.264 / 1080i] скачать через торрент бесплатно
  • Хоккей. Кубок Шпенглера 2015. 1 / 4 финала. Йокерит (Финляндия) - Давос (Швейцария). (29.12.2015) HDTV [H.264 / 1080i] скачать через торрент бесплатно
  • Хоккей. Кубок Шпенглера 2015. 1 / 2 Финала. Лугано (Лугано, Швейцария) - Автомобилист (Екатеринбург) (30.12.2015) HDTV [H.264 / 1080i] скачать через торрент бесплатно
  • Хоккей. Кубок Шпенглера 2015. Финал. Канада - Лугано (Швейцария) (31.12.2015) HDTV [H.264 / 1080i] скачать через торрент бесплатно
  • Хоккей. Кубок мира 2016. Выставочный матч. Россия - Чехия (08.09.2016) HDTVRip [H.264 / 720p-LQ] [hand made 50 fps]
  • Хоккей. Кубок мира 2016. Выставочный матч. Финляндия - Швеция (08.09.2016) HDTVRip [H.264 / 720p-LQ] [hand made 50 fps]
  • Хоккей. Кубок мира 2016. Выставочный матч. Россия - Чехия (2016.09.08) HDTV [H.264 / 1080i]
  • Хоккей. Кубок мира 2016. Выставочный матч. Швеция - Финляндия (2016.09.08) HDTV [H.264 / 1080i]


    • Комментарии (0):

      Информация

      Информация

        Посетители, находящиеся в группе Гости, не могут оставлять комментарии в данной новости.

        ↓ Меню




        ↓ Опрос

        Вы добавили сайт в закладки?
        Да
        Нет


        Top 10 за месяц (Передачи)