.
Авторизация | Регистрация
Хочешь лучшие торренты? Добавь свой email!
Добавить

Торрент скачать бесплатно

  • support: webmaster@btracker.org
» » BBC: Истоки жизни (Первая жизнь с Дэвидом Аттенборо) / First Life (David Attenboroughs First Life) (2010) BDRemux [VC-1 / 1080i] (Серии 1-2 из 2) [AVO] торрент скачать бесплатно


    BBC: Истоки жизни (Первая жизнь с Дэвидом Аттенборо) / First Life (David Attenboroughs First Life) (2010) BDRemux [VC-1 / 1080i] (Серии 1-2 из 2) [AVO] торрент скачать бесплатно

    Опубликовал: Админ | Дата: 1-06-2018, 05:00 | .torrent скачали: 0

    BBC: Истоки жизни (Первая жизнь с Дэвидом Аттенборо) / First Life (David Attenboroughs First Life) (2010) BDRemux [VC-1 / 1080i] (Серии 1-2 из 2) [AVO]Производство: Великобритания, An Atlantic Production, BBC, Discovery Channel, Australian Broadcasting Corporation
    Жанр: Документальный, научно-познавательный
    Режиссер: Мартин Уильямс
    Участники: Дэвид Аттенборо, Хэйзел Бартон, Бернард Деньян, Филип Донохью, Гай Нарбонне, Жан-Бернар Карон, Джастин Маршалл

    Описание

    От побережья Ньюфаундленда, окутанного туманом, до пустынь Северной Америки и тропических джунглей Квинсленда Дэвид Аттенборо в фильме Первая жизнь ищет доказательство в окаменелостях и животных невероятного периода истории Земли полмиллиарда лет назад, когда животные впервые появились в океанах. От первых глаз, которые видели, до первых хищников, которые убивали, и первых конечностей, которые шагали по суше, это были создания, которые развили черты и приспособления, позволяющие всем животным, даже нам, выживать в наши дни. Это история, которую можно рассказать только сейчас, поскольку найденные за последние несколько лет ошеломляющие окаменелости по всему миру изменили наше понимание самых первых форм жизни, а современная технология позволяет нам воссоздать первых животных и их окружение с помощью фотореалистичного компьютерного изображения.

    Возраст: 0+ (для любой зрительской аудитории)
    Релиз от: boba88
    Продолжительность: 2 х ~ 00: 58: 59
    Качество видео: BDRemux
    Перевод: Одноголосый закадровый, авторский (В.Курдов)
    Субтитры: Русские, Английские
    Видео: VC-1, 1920x1080, ~16, 0 Mbps
    Аудио#1: AC3, 2 ch, 640 Kbps | Русский
    Аудио#2: AC3, 2 ch, 640 Kbps | Английский

    Общее
    Уникальный идентификатор : 35789385124492223970427087514778902797 (0x1AECC8EBF21DB1C7B59E0E6830AEA10D)
    Полное имя : F: КИНОBBC First Life (David Attenborough\'s) 2010 BDRemux (1080i)1_Arrival.mkv
    Формат : Matroska
    Версия формата : Version 4/Version 2
    Размер файла : 7, 13 Гбайт
    Продолжительность : 58 м. 58 с.
    Общий поток : 17, 3 Мбит/сек
    Дата кодирования : UTC 2018-05-31 18: 23: 24
    Программа кодирования : mkvmerge v23.0.0 (\'The Bride Said No\') 64-bit
    Библиотека кодирования : libebml v1.3.6 + libmatroska v1.4.9
    Видео
    Идентификатор : 1
    Формат : VC-1
    Профиль формата : Advanced@L3
    Идентификатор кодека : V_MS/VFW/FOURCC/WVC1
    Идентификатор кодека/Подсказка : Microsoft
    Продолжительность : 58 м. 58 с.
    Битрейт : 16, 0 Мбит/сек
    Ширина : 1920 пикселей
    Высота : 1080 пикселей
    Соотношение сторон : 16: 9
    Режим частоты кадров : Постоянный
    Частота кадров : 25, 000 кадров/сек
    Цветовое пространство : YUV
    Субдискретизация насыщенности : 4: 2: 0
    Битовая глубина : 8 бит
    Тип развёртки : Чересстрочная
    Порядок развёртки : Верхнее поле первое
    Метод сжатия : С потерями
    Бит/(Пиксели*Кадры) : 0.309
    Размер потока : 6, 59 Гбайт (92%)
    Default : Да
    Forced : Нет
    Аудио #1
    Идентификатор : 2
    Формат : AC-3
    Формат/Информация : Audio Coding 3
    Идентификатор кодека : A_AC3
    Продолжительность : 58 м. 58 с.
    Вид битрейта : Постоянный
    Битрейт : 640 Кбит/сек
    Каналы : 2 канала
    Расположение каналов : Front: L R
    Частота : 48, 0 КГц
    Частота кадров : 31, 250 кадров/сек (1536 SPF)
    Битовая глубина : 16 бит
    Метод сжатия : С потерями
    Задержка видео : 40 мс.
    Размер потока : 270 Мбайт (4%)
    Язык : Russian
    ServiceKind/String : Complete Main
    Default : Да
    Forced : Нет
    Аудио #2
    Идентификатор : 3
    Формат : AC-3
    Формат/Информация : Audio Coding 3
    Идентификатор кодека : A_AC3
    Продолжительность : 58 м. 58 с.
    Вид битрейта : Постоянный
    Битрейт : 640 Кбит/сек
    Каналы : 2 канала
    Расположение каналов : Front: L R
    Частота : 48, 0 КГц
    Частота кадров : 31, 250 кадров/сек (1536 SPF)
    Битовая глубина : 16 бит
    Метод сжатия : С потерями
    Задержка видео : 40 мс.
    Размер потока : 270 Мбайт (4%)
    Язык : English
    ServiceKind/String : Complete Main
    Default : Нет
    Forced : Нет
    Текст #1
    Идентификатор : 4
    Формат : PGS
    Режим смешивания : zlib
    Идентификатор кодека : S_HDMV/PGS
    Идентификатор кодека/Информация : Picture based subtitle format used on BDs/HD-DVDs
    Продолжительность : 58 м. 0 с.
    Битрейт : 41, 1 Кбит/сек
    ElementCount : 878
    Размер потока : 17, 1 Мбайт (0%)
    Язык : Russian
    Default : Да
    Forced : Нет
    Текст #2
    Идентификатор : 5
    Формат : PGS
    Режим смешивания : zlib
    Идентификатор кодека : S_HDMV/PGS
    Идентификатор кодека/Информация : Picture based subtitle format used on BDs/HD-DVDs
    Продолжительность : 58 м. 28 с.
    Битрейт : 37, 1 Кбит/сек
    ElementCount : 881
    Размер потока : 15, 5 Мбайт (0%)
    Язык : English
    Default : Нет
    Forced : Нет


    BBC: Истоки жизни (Первая жизнь с Дэвидом Аттенборо)/First Life (David Attenboroughs First Life) (2010) BDRemux [VC-1/1080i] (Серии 1-2 из 2) [AVO]
    Рейтинг →
     (голосов: 1, оценка 5/5, голосовать можно 1 раз )

    Другие торренты по теме:

  • Джон Гриндер, Фрэнк Пьюселик | Истоки нейро-лингвистического программирования (2014) [FB2] скачать через торрент бесплатно
  • Shingeki no Bahamut: Genesis / Rage of Bahamut: Genesis / Ярость Бахамута: Истоки [2014, TV, 4 из 12] HDTV 720p Raw+Rus
  • Я. Я. Гришин | Истоки кризисов (1991) [DJVU] скачать через торрент бесплатно
  • Discovery: Прошлое. Истоки настоящего / How We Got Here [сезон 1 серии 2-12 из 12] (2015) SATRip [обновляемая] скачать через торрент бесплатно
  • В. И. Ильин | Буржуазный плюрализм: истоки и классовый смысл (1983) [DJVU] скачать через торрент бесплатно
  • Вячеслав Никонов | Современный мир и его истоки (2015) [PDF] скачать через торрент бесплатно
  • Стивен Вайнберг | Объясняя мир. Истоки современной науки (2016) [FB2] скачать через торрент бесплатно
  • Александр Леонтьев, Марина Леонтьева | Истоки медвежьей Руси (2007) [FB2] скачать через торрент бесплатно


    • Комментарии (0):

      Информация

      Информация

        Посетители, находящиеся в группе Гости, не могут оставлять комментарии в данной новости.

        ↓ Меню




        ↓ Опрос

        Вы добавили сайт в закладки?
        Да
        Нет


        Top 10 за месяц (Передачи)