.
Авторизация | Регистрация
Хочешь лучшие торренты? Добавь свой email!
Добавить

Торрент скачать бесплатно

  • support: webmaster@btracker.org
» » Дунай: Европейская Амазонка / Danube: Europes Amazon (2012) HDTV [H.264 / 1080i-LQ] (серии 1-2 из 2) торрент скачать бесплатно


    Дунай: Европейская Амазонка / Danube: Europes Amazon (2012) HDTV [H.264 / 1080i-LQ] (серии 1-2 из 2) торрент скачать бесплатно

    Опубликовал: Админ | Дата: 31-05-2018, 05:00 | .torrent скачали: 0

    Дунай: Европейская Амазонка / Danube: Europes Amazon (2012) HDTV [H.264 / 1080i-LQ] (серии 1-2 из 2)Производство: Австрия, ScienceVision, ORF Universum, Norddeutscher Rundfunk (NDR)
    Жанр: Документальный, природа, флора, фауна
    Режиссер: Михаэль Шламбергер, Рита Шламбергер

    Описание

    Дунай, протекающий по территориям 10 стран, является самой многонациональной рекой в мире и второй по протяжённости рекой в Европе (после Волги), объединяющей разнообразные ландшафты и природные зоны. Река берёт исток на территории Германии, в горах Шварцвальда. Далее Дунай протекает или является границей десяти государств: Германия, Австрия, Словакия, Венгрия, Хорватия, Сербия, Болгария, Румыния, Молдавия и Украина. Проходя через такие столицы Центральной и Восточной Европы, как Вена, Братислава, Будапешт и Белград. Помимо данных этих десяти стран, водосборный бассейн Дуная охватывает территории ещё девяти европейских государств. Дунай впадает в Чёрное море, образуя дельту в Румынии и Украине; румынская часть которой внесена в список объектов Всемирного наследия ЮНЕСКО.

    Релиз от: GREYCAT
    Продолжительность: 2 х 00: 44: 59
    Качество видео: HDTV
    Перевод: Дублированный (АРК ТВ)
    Субтитры: отсутствуют
    Видео: AVC/H.264, 1920x1080, ~9.5 Mbps
    Аудио#1: MP2, 2 ch, 192 Kbps | Русский (текст читал Игорь Тарадайкин)
    Аудио#2: MP2, 2 ch, 192 Kbps | Английский

    Общее
    Идентификатор : 1 (0x1)
    Полное имя : F: КИНОDanube Europe\'s AmazonS1Ep1_From The Black Forest to The Black Sea 1080i.ts
    Формат : MPEG-TS
    Размер файла : 3, 46 Гбайт
    Продолжительность : 44 м. 59 с.
    Режим общего битрейта : Переменный
    Общий поток : 11, 0 Мбит/сек
    Видео
    Идентификатор : 321 (0x141)
    Идентификатор меню : 1 (0x1)
    Формат : AVC
    Формат/Информация : Advanced Video Codec
    Профиль формата : Main@L4
    Настройки формата : CABAC/3 Ref Frames
    Параметр CABAC формата : Да
    Параметр RefFrames формата : 3 кадра
    Идентификатор кодека : 27
    Продолжительность : 44 м. 59 с.
    Битрейт : 10, 1 Мбит/сек
    Ширина : 1920 пикселей
    Высота : 1080 пикселей
    Соотношение сторон : 16: 9
    Частота кадров : 25, 000 кадров/сек
    Стандарт вещания : Component
    Цветовое пространство : YUV
    Субдискретизация насыщенности : 4: 2: 0
    Битовая глубина : 8 бит
    Тип развёртки : Чересстрочная
    Метод сохранения типа развёртки : Раздельные поля
    Порядок развёртки : Верхнее поле первое
    Бит/(Пиксели*Кадры) : 0.194
    Размер потока : 3, 17 Гбайт (92%)
    Цветовой диапазон : Limited
    Основные цвета : BT.709
    Характеристики трансфера : BT.709
    Коэффициенты матрицы : BT.709
    Аудио #1
    Идентификатор : 401 (0x191)
    Идентификатор меню : 1 (0x1)
    Формат : MPEG Audio
    Версия формата : Version 1
    Профиль формата : Layer 2
    Идентификатор кодека : 3
    Продолжительность : 44 м. 59 с.
    Вид битрейта : Постоянный
    Битрейт : 192 Кбит/сек
    Каналы : 2 канала
    Частота : 48, 0 КГц
    Частота кадров : 41, 667 кадра/сек (1152 SPF)
    Метод сжатия : С потерями
    Размер потока : 61, 8 Мбайт (2%)
    Язык : Russian
    Аудио #2
    Идентификатор : 451 (0x1C3)
    Идентификатор меню : 1 (0x1)
    Формат : MPEG Audio
    Версия формата : Version 1
    Профиль формата : Layer 2
    Идентификатор кодека : 3
    Продолжительность : 44 м. 59 с.
    Вид битрейта : Постоянный
    Битрейт : 192 Кбит/сек
    Каналы : 2 канала
    Частота : 48, 0 КГц
    Частота кадров : 41, 667 кадра/сек (1152 SPF)
    Метод сжатия : С потерями
    Размер потока : 61, 8 Мбайт (2%)
    Язык : English


    Дунай: Европейская Амазонка/Danube: Europes Amazon (2012) HDTV [H.264/1080i-LQ] (серии 1-2 из 2)
    Рейтинг →
     (голосов: 1, оценка 3/5, голосовать можно 1 раз )

    Другие торренты по теме:

  • Viasat Nature: Тайны заливного леса – национальный парк Дунай / Secrets of the Flooded Forest - Danube National Park (2011) HDTVRip [H.264 / 720p-LQ]


    • Комментарии (0):

      Информация

      Информация

        Посетители, находящиеся в группе Гости, не могут оставлять комментарии в данной новости.

        ↓ Меню




        ↓ Опрос

        Вы добавили сайт в закладки?
        Да
        Нет


        Top 10 за месяц (Передачи)