.
Авторизация | Регистрация
Хочешь лучшие торренты? Добавь свой email!
Добавить

Торрент скачать бесплатно

  • support: webmaster@btracker.org
» » История России XX века (2007-2013) DVDRip (серии 1-120 из 135) торрент скачать бесплатно


    История России XX века (2007-2013) DVDRip (серии 1-120 из 135) торрент скачать бесплатно

    Опубликовал: Админ | Дата: 31-05-2018, 05:00 | .torrent скачали: 0

    История России XX века (2007-2013) DVDRip (серии 1-120 из 135)Телекомпания: Кинокомпания Новое Время
    Жанр: Документальный, История
    Режиссер: Николай Смирнов
    Автор сценария: Михаил Ширяев
    Участники: Лидия Болгарчук, Михаил Ширяев, Андрей Вассоевич, Николай Смирнов, Николай Симаков

    Описание

    Цикл фильмов История России. XX век. – документальный исторический сериал производства компании Новое время. Фильмы, объединенные в тематические циклы, представляют собой попытку переосмысления судьбоносных и драматических событий российской истории на основе многочисленных документальных источников. Авторы сериала собрали воедино как известные широкой общественности, так и замалчивавшиеся ранее факты, архивные материалы, лозунги официальной пропаганды, письменные свидетельства очевидцев и современников. Из этой пестрой и разнородной, на первый взгляд, мозаики сложилось цельное историческое полотно, в котором прослеживаются четкие взаимные связи между отдельными событиями, личностями и распространенными историческими мифами. В создании документального сериала принимали участие известные историки, журналисты, писатели, аналитики и военные эксперты. В фильмах, адресованных самому широкому кругу зрителей, неравнодушных к судьбе великой страны, использованы уникальные кадры видеохроник и раритетные фотографии начала ХХ века. Не успев выйти, сериал стал раритетом. Настоятельно рекомендую всем, кому хотя бы мало-мальски интересна история России. Данный документальный цикл даст вам возможность взглянуть на события начала ХХ века под другим углом. Фильм снят при поддержке Русской Православной Церкви. Фильмы рассказывают о драматической, полной взлетов и падений истории России XX века, о страшных испытаниях страны в эпоху самодержавия, о последнем русском царе и падении монархии, о государственной катастрофе России периода революций (1905-1917 г.г.) и гражданской войны. Кому выгодно разрушение России, кто стоит за спиной организаторов революций, кто казнил царя и его семью, заговоры, обманы, закулисные интриги, террор и геноцид русского народа, мифы истории скрывающие правду, и многое другое.

    Продолжительность: 120 x ~00: 26: 00
    Качество видео: DVDRip
    Субтитры: отсутствуют
    Видео: Xvid, 720x544 (4: 3), ~1664 Kbps
    Аудио: MP3, 2 ch, 106 Kbps

    General
    Complete name : C: История России XX века01. Начало 20 века.avi
    Format : AVI
    Format/Info : Audio Video Interleave
    File size : 335 MiB
    Duration : 26 min 18 s
    Overall bit rate mode : Variable
    Overall bit rate : 1 782 kb/s
    Video
    ID : 0
    Format : MPEG-4 Visual
    Format profile : Advanced Simple@L5
    Format settings : BVOP1/Custom Matrix
    Format settings, BVOP : 1
    Format settings, QPel : No
    Format settings, GMC : No warppoints
    Format settings, Matrix : Custom
    Codec ID : XVID
    Codec ID/Hint : XviD
    Duration : 26 min 18 s
    Bit rate : 1 664 kb/s
    Width : 720 pixels
    Height : 544 pixels
    Display aspect ratio : 4: 3
    Frame rate : 25.000 FPS
    Color space : YUV
    Chroma subsampling : 4: 2: 0
    Bit depth : 8 bits
    Scan type : Progressive
    Compression mode : Lossy
    Bits/(Pixel*Frame) : 0.170
    Stream size : 313 MiB (93%)
    Writing library : XviD 1.2.1 (UTC 2008-12-04)
    Audio
    ID : 1
    Format : MPEG Audio
    Format version : Version 1
    Format profile : Layer 3
    Format settings : Joint stereo/MS Stereo
    Codec ID : 55
    Codec ID/Hint : MP3
    Duration : 15 min 46 s
    Source duration : 26 min 19 s
    Bit rate mode : Variable
    Bit rate : 106 kb/s
    Channel(s) : 2 channels
    Sampling rate : 48.0 kHz
    Compression mode : Lossy
    Stream size : 19.9 MiB (6%)
    Alignment : Aligned on interleaves
    Interleave, duration : 24 ms (0.60 video frame)


    История России XX века (2007-2013) DVDRip (серии 1-120 из 135)
    Рейтинг →
     (голосов: 1, оценка 4/5, голосовать можно 1 раз )

    Другие торренты по теме:



      Комментарии (0):

      Информация

      Информация

        Посетители, находящиеся в группе Гости, не могут оставлять комментарии в данной новости.

        ↓ Меню




        ↓ Опрос

        Вы добавили сайт в закладки?
        Да
        Нет


        Top 10 за месяц (Передачи)