.
Авторизация | Регистрация
Хочешь лучшие торренты? Добавь свой email!
Добавить

Торрент скачать бесплатно

  • support: webmaster@btracker.org
» » NG. Тираннозавр: чемпион по выживанию / T.Rex: Ultimate Survivor (2015) HDTV [H.264 / 1080i-LQ] торрент скачать бесплатно


    NG. Тираннозавр: чемпион по выживанию / T.Rex: Ultimate Survivor (2015) HDTV [H.264 / 1080i-LQ] торрент скачать бесплатно

    Опубликовал: Админ | Дата: 31-05-2018, 05:00 | .torrent скачали: 1

    NG. Тираннозавр: чемпион по выживанию / T.Rex: Ultimate Survivor (2015) HDTV [H.264 / 1080i-LQ]Производство: Великобритания, Warehouse 51 Productions, Sky Vision, National Geographic
    Жанр: Документальный, палеонтология
    Режиссер: Фил Колс

    Описание

    Тираннозавр рекс, знаменитый король динозавров, был самым сильным хищником своего времени. Вооружённый устрашающими челюстями, он, казалось, был неуязвим к нападениям. Однако новые находки доказывают, что жизнь тираннозавра и его родственников была весьма суровой. Ископаемые останки этого вида динозавров были исследованы с использованием новейших технологий, чтобы найти источник полученных ранений и узнать о неудачных попытках нападений и титанических битвах.
    Релиз от: HDclub
    Продолжительность: 00: 43: 58
    Качество видео: HDTV
    Перевод: Одноголосый закадровый, профессиональный (Велес)
    Субтитры: отсутствуют
    Видео: AVC/H.264, 1920x1080, ~4043 Kbps
    Аудио#1: AC3, 2 ch, 192 Kbps | Русский (текст читал: Сергей Куприянов)
    Аудио#2: AC3, 2 ch, 192 Kbps | Английский

    Общее
    Идентификатор : 1 (0x1)
    Полное имя : F: КИНОT.Rex.Ultimate.Survivor.(2015).HDTV.1080i.Rus.Eng_HDClub.ts
    Формат : MPEG-TS
    Размер файла : 1, 43 Гбайт
    Продолжительность : 43 м. 58 с.
    Режим общего битрейта : Переменный
    Общий поток : 4661 Кбит/сек
    Максимальный общий битрейт : 35, 5 Мбит/сек
    Видео
    Идентификатор : 4113 (0x1011)
    Идентификатор меню : 1 (0x1)
    Формат : AVC
    Формат/Информация : Advanced Video Codec
    Профиль формата : High@L4
    Настройки формата : CABAC/3 Ref Frames
    Параметр CABAC формата : Да
    Параметр RefFrames формата : 3 кадра
    Идентификатор кодека : 27
    Продолжительность : 43 м. 58 с.
    Вид битрейта : Переменный
    Битрейт : 4043 Кбит/сек
    Максимальный битрейт : 40, 0 Мбит/сек
    Ширина : 1920 пикселей
    Высота : 1080 пикселей
    Соотношение сторон : 16: 9
    Частота кадров : 25, 000 кадров/сек
    Стандарт вещания : Component
    Цветовое пространство : YUV
    Субдискретизация насыщенности : 4: 2: 0
    Битовая глубина : 8 бит
    Тип развёртки : Чересстрочная
    Метод сохранения типа развёртки : Раздельные поля
    Порядок развёртки : Верхнее поле первое
    Бит/(Пиксели*Кадры) : 0.078
    Размер потока : 1, 24 Гбайт (87%)
    Цветовой диапазон : Limited
    Основные цвета : BT.709
    Характеристики трансфера : BT.709
    Коэффициенты матрицы : BT.709
    Аудио #1
    Идентификатор : 4352 (0x1100)
    Идентификатор меню : 1 (0x1)
    Формат : AC-3
    Формат/Информация : Audio Coding 3
    Идентификатор кодека : 129
    Продолжительность : 43 м. 58 с.
    Вид битрейта : Постоянный
    Битрейт : 192 Кбит/сек
    Каналы : 2 канала
    Расположение каналов : Front: L R
    Частота : 48, 0 КГц
    Частота кадров : 31, 250 кадров/сек (1536 SPF)
    Битовая глубина : 16 бит
    Метод сжатия : С потерями
    Размер потока : 60, 4 Мбайт (4%)
    Язык : Russian
    ServiceKind/String : Complete Main
    Аудио #2
    Идентификатор : 4353 (0x1101)
    Идентификатор меню : 1 (0x1)
    Формат : AC-3
    Формат/Информация : Audio Coding 3
    Идентификатор кодека : 129
    Продолжительность : 43 м. 58 с.
    Вид битрейта : Постоянный
    Битрейт : 192 Кбит/сек
    Каналы : 2 канала
    Расположение каналов : Front: L R
    Частота : 48, 0 КГц
    Частота кадров : 31, 250 кадров/сек (1536 SPF)
    Битовая глубина : 16 бит
    Метод сжатия : С потерями
    Размер потока : 60, 4 Мбайт (4%)
    Язык : English
    ServiceKind/String : Complete Main

    Скриншоты для ознакомления



    Все одноименные релизы в Клубе
    Время раздачи: с 18: 00 до 23: 00 (до появления первых 3-5 скачавших)


    NG. Тираннозавр: чемпион по выживанию/T.Rex: Ultimate Survivor (2015) HDTV [H.264/1080i-LQ]
    Рейтинг →
     (голосов: 1, оценка 3/5, голосовать можно 1 раз )

    Другие торренты по теме:

  • NG: Больше, чем тираннозавр / Bigger Than T.Rex (2014) SATRip
  • NG:Больше, чем тираннозавр / Bigger Than T.Rex (2014) HDTV [H.264 / 1080i]


    • Комментарии (0):

      Информация

      Информация

        Посетители, находящиеся в группе Гости, не могут оставлять комментарии в данной новости.

        ↓ Меню




        ↓ Опрос

        Вы добавили сайт в закладки?
        Да
        Нет


        Top 10 за месяц (Передачи)