.
Авторизация | Регистрация
Хочешь лучшие торренты? Добавь свой email!
Добавить

Торрент скачать бесплатно

  • support: webmaster@btracker.org
» » NGW: Крупные рыбы Зэба: огромный сом / Monster Fish. Zebs Big Fish (2018) HDTV [H.264 / 1080i-LQ] торрент скачать бесплатно


    NGW: Крупные рыбы Зэба: огромный сом / Monster Fish. Zebs Big Fish (2018) HDTV [H.264 / 1080i-LQ] торрент скачать бесплатно

    Опубликовал: Админ | Дата: 31-05-2018, 05:00 | .torrent скачали: 0

    NGW: Крупные рыбы Зэба: огромный сом / Monster Fish. Zebs Big Fish (2018) HDTV [H.264 / 1080i-LQ]Производство: Сингапур, National Geographic
    Жанр: Документальный, экстрим, рыбалка
    Режиссер: Дин Джонсон

    Описание

    Зеб Хоган отправляется в опасное путешествие по одной из величайших рек Азии - Салуину. Не исследовавшаяся в течение 50-ти лет военного режима, эта река - последнее прибежище различных видов животных, находящихся на грани вымирания.
    Релиз от: Zakol
    Продолжительность: 00: 43: 19
    Качество видео: HDTV
    Перевод: Дублированный (Велес. Текст читал Станислав Воронецкий)
    Субтитры: отсутствуют
    Видео: AVC/H.264, 1920x1080, ~6500 Kbps
    Аудио#1: MP2, 2 ch, 192 Kbps | Русский
    Аудио#2: MP2, 2 ch, 192 Kbps | Английский

    Общее
    Идентификатор : 1 (0x1)
    Полное имя : F: КИНОКрупные рыбы Зэба 1080i (2018).ts
    Формат : MPEG-TS
    Размер файла : 2, 18 Гбайт
    Продолжительность : 43 м. 19 с.
    Режим общего битрейта : Переменный
    Общий поток : 7198 Кбит/сек
    Видео
    Идентификатор : 1154 (0x482)
    Идентификатор меню : 135 (0x87)
    Формат : AVC
    Формат/Информация : Advanced Video Codec
    Профиль формата : Main@L4
    Настройки формата : CABAC/2 Ref Frames
    Параметр CABAC формата : Да
    Параметр RefFrames формата : 2 кадра
    Параметр GOP формата : M=3, N=32
    Идентификатор кодека : 27
    Продолжительность : 43 м. 19 с.
    Вид битрейта : Постоянный
    Битрейт : 6500 Кбит/сек
    Ширина : 1920 пикселей
    Высота : 1080 пикселей
    Соотношение сторон : 16: 9
    Частота кадров : 25, 000 кадров/сек
    Цветовое пространство : YUV
    Субдискретизация насыщенности : 4: 2: 0
    Битовая глубина : 8 бит
    Тип развёртки : Чересстрочная
    Метод сохранения типа развёртки : Раздельные поля
    Порядок развёртки : Верхнее поле первое
    Бит/(Пиксели*Кадры) : 0.125
    Размер потока : 1, 95 Гбайт (90%)
    Аудио #1
    Идентификатор : 1155 (0x483)
    Идентификатор меню : 135 (0x87)
    Формат : MPEG Audio
    Версия формата : Version 1
    Профиль формата : Layer 2
    Идентификатор кодека : 3
    Продолжительность : 43 м. 19 с.
    Вид битрейта : Постоянный
    Битрейт : 192 Кбит/сек
    Каналы : 2 канала
    Частота : 48, 0 КГц
    Частота кадров : 41, 667 кадра/сек (1152 SPF)
    Метод сжатия : С потерями
    Размер потока : 59, 5 Мбайт (3%)
    Язык : Russian
    Аудио #2
    Идентификатор : 1156 (0x484)
    Идентификатор меню : 135 (0x87)
    Формат : MPEG Audio
    Версия формата : Version 1
    Профиль формата : Layer 2
    Идентификатор кодека : 3
    Продолжительность : 43 м. 19 с.
    Вид битрейта : Постоянный
    Битрейт : 192 Кбит/сек
    Каналы : 2 канала
    Частота : 48, 0 КГц
    Частота кадров : 41, 667 кадра/сек (1152 SPF)
    Метод сжатия : С потерями
    Размер потока : 59, 5 Мбайт (3%)
    Язык : English

    Скриншоты для ознакомления



    Все одноименные релизы в Клубе
    Время раздачи: с 18: 00 до 23: 00 (до появления первых 3-5 скачавших)


    NGW: Крупные рыбы Зэба: огромный сом/Monster Fish. Zebs Big Fish (2018) HDTV [H.264/1080i-LQ]
    Рейтинг →
     (голосов: 1, оценка 3/5, голосовать можно 1 раз )

    Другие торренты по теме:

  • NGW: Крупные рыбы Зэба: нашествие акул-молотов / Monster Fish. Zebs Big Fish (2017) HDTV [H.264 / 1080i-LQ]


    • Комментарии (0):

      Информация

      Информация

        Посетители, находящиеся в группе Гости, не могут оставлять комментарии в данной новости.

        ↓ Меню




        ↓ Опрос

        Вы добавили сайт в закладки?
        Да
        Нет


        Top 10 за месяц (Передачи)