.
Авторизация | Регистрация
Хочешь лучшие торренты? Добавь свой email!
Добавить

Торрент скачать бесплатно

  • support: webmaster@btracker.org
» » Баскетбол. Лига чемпионов ФИБА 2017-2018. Финал 4-х. Афины (Греция). Финал. Монако (Монако) — АЕК (Греция) (2018) IPTVRip торрент скачать бесплатно


    Баскетбол. Лига чемпионов ФИБА 2017-2018. Финал 4-х. Афины (Греция). Финал. Монако (Монако) — АЕК (Греция) (2018) IPTVRip торрент скачать бесплатно

    Опубликовал: Админ | Дата: 30-05-2018, 05:00 | .torrent скачали: 0

    Баскетбол. Лига чемпионов ФИБА 2017-2018. Финал 4-х. Афины (Греция). Финал. Монако (Монако) — АЕК (Греция) (2018) IPTVRipТелекомпания: Матч! Арена HD
    Жанр: Спорт
    Комментатор: Дмитрий Гараненко

    Описание
    06 мая 2018 года, воскресенье. 20: 30 МСК
    Баскетбол. Лига чемпионов ФИБА 2017-2018. Финал четырёх. Афины (Греция)
    Финал.
    Монако (Монако, Монако) — АЕК (Афины, Греция)
    Стадион: O.A.K.A.- Олимпик Индур Холл (Афины, Греция) , вместимость: 19250
    Судьи: Александар Глисич (Сербия), Томас Ясевичюс (Литва), Мартиньш Козловскис (Латвия)
    Релиз от: chedder_nukakby
    Продолжительность: 02: 06: 33
    Качество видео: IPTVRip
    Язык озвучки: Русский
    Субтитры: отсутствуют
    Видео: AVC/H.264, 1024x576, ~4000 Kbps
    Аудио: AAC, 2 ch, 48 kHz, ~128 Kbps

    Общее
    Уникальный идентификатор : 304900923918663524349615345466494811709 (0xE561C82D85F02E6AA01A3CF09265FE3D)
    Полное имя : F: SPORTБаскетболBasketball Champions League FIBA 17-18(06.05.2018)_FIBA BChL 17-18.F-4.Final. AS Monaco(MCO)–AEK(GRC)_576p.mkv
    Формат : Matroska
    Версия формата : Version 4/Version 2
    Размер файла : 1, 45 Гбайт
    Продолжительность : 2 ч. 6 м.
    Общий поток : 1638 Кбит/сек
    Дата кодирования : UTC 2018-05-25 22: 12: 23
    Программа кодирования : mkvmerge v23.0.0 (\'The Bride Said No\') 32-bit
    Библиотека кодирования : libebml v1.3.6 + libmatroska v1.4.9
    Видео
    Идентификатор : 1
    Формат : AVC
    Формат/Информация : Advanced Video Codec
    Профиль формата : High@L3.1
    Настройки формата : CABAC/4 Ref Frames
    Параметр CABAC формата : Да
    Параметр RefFrames формата : 4 кадра
    Идентификатор кодека : V_MPEG4/ISO/AVC
    Продолжительность : 2 ч. 6 м.
    Битрейт : 1510 Кбит/сек
    Ширина : 1024 пикселя
    Высота : 576 пикселей
    Соотношение сторон : 16: 9
    Режим частоты кадров : Постоянный
    Частота кадров : 25, 000 кадров/сек
    Цветовое пространство : YUV
    Субдискретизация насыщенности : 4: 2: 0
    Битовая глубина : 8 бит
    Тип развёртки : Прогрессивная
    Бит/(Пиксели*Кадры) : 0.102
    Размер потока : 1, 33 Гбайт (92%)
    Default : Да
    Forced : Нет
    Аудио
    Идентификатор : 2
    Формат : AAC
    Формат/Информация : Advanced Audio Codec
    Профиль формата : LC
    Идентификатор кодека : A_AAC-2
    Продолжительность : 2 ч. 6 м.
    Битрейт : 125 Кбит/сек
    Каналы : 2 канала
    Расположение каналов : Front: L R
    Частота : 48, 0 КГц
    Частота кадров : 46, 875 кадров/сек (1024 SPF)
    Метод сжатия : С потерями
    Размер потока : 114 Мбайт (8%)
    Язык : Russian
    Default : Да
    Forced : Нет

    Скриншоты для ознакомления



    Все одноименные релизы в Клубе
    Время раздачи: 24/7 (около 1 месяца)


    Баскетбол. Лига чемпионов ФИБА 2017-2018. Финал 4-х. Афины (Греция). Финал. Монако (Монако) — АЕК (Греция) (2018) IPTVRip
    Рейтинг →
     (голосов: 1, оценка 5/5, голосовать можно 1 раз )

    Другие торренты по теме:

  • Баскетбол. Лига чемпионов ФИБА 2016-2017. Группа B. 1-й тур. Химик (Украина) - Автодор (Россия) (19.10.2016) SATRip [H.264]
  • Баскетбол. Лига чемпионов ФИБА 2016-2017. Группа B. 2-й тур. Автодор (Россия) — Катая (Финляндия) (26.10.2016) HDTVRip [H.264 / 720p-LQ][hand made 50fps]
  • Баскетбол. Лига чемпионов ФИБА 2016-2017. Группа H. 2-й тур. Енисей (Россия) — Демир Иншаа (Турция) (25.10.2016) WEB-DL [H.264 / 720p-LQ][INT]
  • Баскетбол. Лига чемпионов ФИБА 2017-2018. Группа C. 1-й тур. Умана Рейер (Италия) – Банвит (Турция) (10.10.2017) WEB-DL [H.264 / 720p-LQ] [EN]
  • Баскетбол. Лига чемпионов ФИБА 2017-2018. Группа B. 1-й тур. Нептунас (Литва) – Элан Шалон (Франция) (10.10.2017) WEB-DL [H.264 / 720p-LQ] [EN]
  • Баскетбол. Лига чемпионов ФИБА 2017-2018. Группа A. 1-й тур. AC Монако (Монако) – Ювентус (Литва) (10.10.2017) WEB-DL [H.264 / 720p-LQ] [EN]
  • Баскетбол. Лига чемпионов ФИБА 2017-2018. Группа A. 1-й тур. Ольденбург (Германия) – Енисей (Россия) (11.10.2017) WEB-DL [H.264 / 720p-LQ] [EN]
  • Баскетбол. Лига чемпионов ФИБА 2017-2018. Группа A. 1-й тур. Ольденбург (Германия) – Енисей (Россия) (11.10.2017) WEB-DLRip


    • Комментарии (0):

      Информация

      Информация

        Посетители, находящиеся в группе Гости, не могут оставлять комментарии в данной новости.

        ↓ Меню




        ↓ Опрос

        Вы добавили сайт в закладки?
        Да
        Нет


        Top 10 за месяц (Передачи)