.
Авторизация | Регистрация
Хочешь лучшие торренты? Добавь свой email!
Добавить

Торрент скачать бесплатно

  • support: webmaster@btracker.org
» » Маленькие монстры: Спрятаться и обмануть / Чудеса адаптации / Kleine Monster: Tauschen & Tarnen / Little Monsters / Hide And Cheat: An Animal Survival Guide (2012) BDRemux [H.264 / 1080p] торрент скачать бесплатно


    Маленькие монстры: Спрятаться и обмануть / Чудеса адаптации / Kleine Monster: Tauschen & Tarnen / Little Monsters / Hide And Cheat: An Animal Survival Guide (2012) BDRemux [H.264 / 1080p] торрент скачать бесплатно

    Опубликовал: Админ | Дата: 30-05-2018, 05:00 | .torrent скачали: 0

    Маленькие монстры: Спрятаться и обмануть / Чудеса адаптации / Kleine Monster: Tauschen & Tarnen / Little Monsters / Hide And Cheat: An Animal Survival Guide (2012) BDRemux [H.264 / 1080p]Производство: Австрия, ORF Universum, ORF Enterprise, Power of Earth TV Film Productions
    Жанр: Документальный, природа, флора, фауна
    Режиссер: Курт Мюндл

    Описание

    Земля - это единственное известное нам место во Вселенной, где есть жизнь ... Миллиарды лет климат Земли колебался между ледниковыми периодами и потеплением, создавая и разрушая среду обитания. Не все животные смогут приспособиться к новым условиям, но жизнь всегда находит способ отвоевать свои позиции. Пока все внимание обращено на крупных животных, преимущества на стороне мелких существ, отвечающих на все испытания новыми приспособлениями. Насекомые, амфибии, пауки и рептилии - все ищут новые экологические ниши, изо всех сил стараясь выжить ... Это их цель, это смысл их существования.
    Релиз от: HDclub
    Продолжительность: 00: 51: 48
    Качество видео: BDRemux
    Перевод: Дублированный (СВ Дубль)
    Субтитры: Английские
    Видео: AVC/H.264, 1920x1080, ~19.9 Mbps
    Аудио#1: AC3, 2 ch, 192 Kbps | Русский дубляж
    Аудио#2: AC3, 2 ch, 192 Kbps | Украинский одноголосый закадровый
    Аудио#3: DTS-HD MA, 6 ch, 2272 kbps, (Core, 1509 Kbps) | Английский

    Общее
    Уникальный идентификатор : 204297124800447547406355020923909655709 (0x99B231ECDDB88B46C81E866E80EF4C9D)
    Полное имя : F: КИНОLittle_Monsters_1080p_BDRemux.mkv
    Формат : Matroska
    Версия формата : Version 4/Version 2
    Размер файла : 8, 19 Гбайт
    Продолжительность : 51 м. 48 с.
    Режим общего битрейта : Переменный
    Общий поток : 22, 6 Мбит/сек
    Дата кодирования : UTC 2018-05-29 14: 52: 08
    Программа кодирования : mkvmerge v23.0.0 (\'The Bride Said No\') 64-bit
    Библиотека кодирования : libebml v1.3.6 + libmatroska v1.4.9
    Видео
    Идентификатор : 1
    Формат : AVC
    Формат/Информация : Advanced Video Codec
    Профиль формата : High@L4.1
    Настройки формата : CABAC/4 Ref Frames
    Параметр CABAC формата : Да
    Параметр RefFrames формата : 4 кадра
    Параметр GOP формата : M=3, N=24
    Идентификатор кодека : V_MPEG4/ISO/AVC
    Продолжительность : 51 м. 47 с.
    Вид битрейта : Переменный
    Битрейт : 19, 9 Мбит/сек
    Максимальный битрейт : 30, 0 Мбит/сек
    Ширина : 1920 пикселей
    Высота : 1080 пикселей
    Соотношение сторон : 16: 9
    Режим частоты кадров : Постоянный
    Частота кадров : 23, 976 (24000/1001) кадра/сек
    Стандарт вещания : NTSC
    Цветовое пространство : YUV
    Субдискретизация насыщенности : 4: 2: 0
    Битовая глубина : 8 бит
    Тип развёртки : Прогрессивная
    Бит/(Пиксели*Кадры) : 0.401
    Размер потока : 7, 22 Гбайт (88%)
    Default : Да
    Forced : Нет
    Цветовой диапазон : Limited
    Основные цвета : BT.709
    Характеристики трансфера : BT.709
    Коэффициенты матрицы : BT.709
    Аудио #1
    Идентификатор : 2
    Формат : AC-3
    Формат/Информация : Audio Coding 3
    Идентификатор кодека : A_AC3
    Продолжительность : 51 м. 48 с.
    Вид битрейта : Постоянный
    Битрейт : 192 Кбит/сек
    Каналы : 2 канала
    Расположение каналов : Front: L R
    Частота : 48, 0 КГц
    Частота кадров : 31, 250 кадров/сек (1536 SPF)
    Битовая глубина : 16 бит
    Метод сжатия : С потерями
    Размер потока : 71, 2 Мбайт (1%)
    Язык : Russian
    ServiceKind/String : Complete Main
    Default : Да
    Forced : Нет
    Аудио #2
    Идентификатор : 3
    Формат : AC-3
    Формат/Информация : Audio Coding 3
    Идентификатор кодека : A_AC3
    Продолжительность : 51 м. 48 с.
    Вид битрейта : Постоянный
    Битрейт : 192 Кбит/сек
    Каналы : 2 канала
    Расположение каналов : Front: L R
    Частота : 48, 0 КГц
    Частота кадров : 31, 250 кадров/сек (1536 SPF)
    Битовая глубина : 16 бит
    Метод сжатия : С потерями
    Размер потока : 71, 2 Мбайт (1%)
    Язык : Ukrainian
    ServiceKind/String : Complete Main
    Default : Нет
    Forced : Нет
    Аудио #3
    Идентификатор : 4
    Формат : DTS
    Формат/Информация : Digital Theater Systems
    Профиль формата : MA/Core
    Идентификатор кодека : A_DTS
    Продолжительность : 51 м. 48 с.
    Вид битрейта : Переменный/Постоянный
    Битрейт : 2272 Кбит/сек/1509 Кбит/сек
    Каналы : 6 каналов
    Расположение каналов : Front: L C R, Side: L R, LFE
    Частота : 48, 0 КГц
    Частота кадров : 93, 750 кадра/сек (512 SPF)
    Битовая глубина : 16 бит
    Метод сжатия : Без потерь/Lossy
    Размер потока : 842 Мбайт (10%)
    Язык : English
    Default : Нет
    Forced : Нет
    Текст
    Идентификатор : 5
    Формат : PGS
    Режим смешивания : zlib
    Идентификатор кодека : S_HDMV/PGS
    Идентификатор кодека/Информация : Picture based subtitle format used on BDs/HD-DVDs
    Продолжительность : 51 м. 3 с.
    Битрейт : 56, 3 Кбит/сек
    ElementCount : 832
    Размер потока : 20, 6 Мбайт (0%)
    Язык : English
    Default : Да
    Forced : Нет

    Скриншоты для ознакомления




    Все одноименные релизы в Клубе
    Время раздачи: с 18: 00 до 23: 00 (до появления первых 3-5 скачавших)


    Маленькие монстры: Спрятаться и обмануть/Чудеса адаптации/Kleine Monster: Tauschen & Tarnen/Little Monsters/Hide And Cheat: An Animal Survival Guide (2012) BDRemux [H.264/1080p]
    Рейтинг →
     (голосов: 1, оценка 4/5, голосовать можно 1 раз )

    Другие торренты по теме:

  • Чудеса адаптации / Маленькие монстры: Спрятаться и обмануть / Kleine Monster: Tuschen & Tarnen / Little Monsters: Hide & Cheat (2012) BDRip скачать через торрент бесплатно


    • Комментарии (0):

      Информация

      Информация

        Посетители, находящиеся в группе Гости, не могут оставлять комментарии в данной новости.

        ↓ Меню




        ↓ Опрос

        Вы добавили сайт в закладки?
        Да
        Нет


        Top 10 за месяц (Передачи)