.
Авторизация | Регистрация
Хочешь лучшие торренты? Добавь свой email!
Добавить

Торрент скачать бесплатно

  • support: webmaster@btracker.org
» » Шелковый снег / The Silk Snow (2017) HDTVRip [H.264 / 1080p-LQ] (Серии 1 из ) (Обновляемая) торрент скачать бесплатно


    Шелковый снег / The Silk Snow (2017) HDTVRip [H.264 / 1080p-LQ] (Серии 1 из ) (Обновляемая) торрент скачать бесплатно

    Опубликовал: Админ | Дата: 30-05-2018, 05:00 | .torrent скачали: 4

    Шелковый снег / The Silk Snow (2017) HDTVRip [H.264 / 1080p-LQ] (Серии 1 из ) (Обновляемая)Производство: Италия, ICEBERG-Film
    Жанр: Документальный, приключения, путешествия
    Режиссер: Фулвио Мариани
    Участники: Фулвио Мариани, Марио Каселли

    Описание

    Невозможно подсчитать количество человек, прошедших по Шелковому пути. Имена первопроходцев так и останутся неизвестными. Цель Фулвио Мариани и Марио Каселли– пройти на лыжах к востоку через Иран, минуя горы на границе Турции и Афганистана.
    Продолжительность: 00: 52: 50
    Качество видео: HDTVRip
    Перевод: Одноголосый закадровый, профессиональный (Контентика)
    Субтитры: отсутствуют
    Видео: AVC/H.264, 1920x1080, ~3690 Kbps
    Аудио: AAC, 2 ch, 126 Kbps

    Общее
    Уникальный идентификатор : 201266458776081673348287100304556259267 (0x976A828DC589EE665193DE74338B77C3)
    Полное имя : F: КИНОШелковый снегШелковый снег (По соседству с вулканами).mkv
    Формат : Matroska
    Версия формата : Version 4/Version 2
    Размер файла : 1, 41 Гбайт
    Продолжительность : 52 м. 50 с.
    Общий поток : 3820 Кбит/сек
    Дата кодирования : UTC 2018-05-29 17: 10: 12
    Программа кодирования : mkvmerge v23.0.0 (\'The Bride Said No\') 64-bit
    Библиотека кодирования : libebml v1.3.6 + libmatroska v1.4.9
    Видео
    Идентификатор : 1
    Формат : AVC
    Формат/Информация : Advanced Video Codec
    Профиль формата : High@L4
    Настройки формата : CABAC/2 Ref Frames
    Параметр CABAC формата : Да
    Параметр RefFrames формата : 2 кадра
    Идентификатор кодека : V_MPEG4/ISO/AVC
    Продолжительность : 52 м. 50 с.
    Битрейт : 3692 Кбит/сек
    Ширина : 1920 пикселей
    Высота : 1080 пикселей
    Соотношение сторон : 16: 9
    Режим частоты кадров : Постоянный
    Частота кадров : 25, 000 кадров/сек
    Цветовое пространство : YUV
    Субдискретизация насыщенности : 4: 2: 0
    Битовая глубина : 8 бит
    Тип развёртки : Прогрессивная
    Бит/(Пиксели*Кадры) : 0.071
    Размер потока : 1, 36 Гбайт (97%)
    Default : Да
    Forced : Нет
    Цветовой диапазон : Limited
    Основные цвета : BT.709
    Характеристики трансфера : BT.709
    Коэффициенты матрицы : BT.709
    Аудио
    Идентификатор : 2
    Формат : AAC
    Формат/Информация : Advanced Audio Codec
    Профиль формата : LC
    Идентификатор кодека : A_AAC-2
    Продолжительность : 52 м. 50 с.
    Битрейт : 126 Кбит/сек
    Каналы : 2 канала
    Расположение каналов : Front: L R
    Частота : 44, 1 КГц
    Частота кадров : 43, 066 кадра/сек (1024 SPF)
    Метод сжатия : С потерями
    Размер потока : 47, 5 Мбайт (3%)
    Default : Да
    Forced : Нет


    Шелковый снег/The Silk Snow (2017) HDTVRip [H.264/1080p-LQ] (Серии 1 из ) (Обновляемая)
    Рейтинг →
     (голосов: 1, оценка 3/5, голосовать можно 1 раз )

    Другие торренты по теме:

  • Шелковый путь / Silk Road (2017) BDRip [H.264 / 720p-LQ] [MVO] [AD]
  • Питер Франкопан | Шелковый путь (2015) [PDF, EPUB, FB2]
  • Питер Франкопан | Шелковый путь. Дорога тканей, рабов, идей и религий (2018) [MP3]


    • Комментарии (0):

      Информация

      Информация

        Посетители, находящиеся в группе Гости, не могут оставлять комментарии в данной новости.

        ↓ Меню




        ↓ Опрос

        Вы добавили сайт в закладки?
        Да
        Нет


        Top 10 за месяц (Передачи)