.
Авторизация | Регистрация
Хочешь лучшие торренты? Добавь свой email!
Добавить

Торрент скачать бесплатно

  • support: webmaster@btracker.org
» » NG. Чудо-юдо динозавры / Bizarre Dinosaurs / Weirdest Dinosaurs (2008) HDTVRip [H.264 / 1080p-LQ] торрент скачать бесплатно


    NG. Чудо-юдо динозавры / Bizarre Dinosaurs / Weirdest Dinosaurs (2008) HDTVRip [H.264 / 1080p-LQ] торрент скачать бесплатно

    Опубликовал: Админ | Дата: 30-05-2018, 05:00 | .torrent скачали: 1

    NG. Чудо-юдо динозавры / Bizarre Dinosaurs / Weirdest Dinosaurs (2008) HDTVRip [H.264 / 1080p-LQ]Производство: США, NGHT, Inc., National Geographic
    Жанр: Документальный, научно-популярный, познавательный
    Режиссер: Дженни Кубо

    Описание

    Их продолжают находить в самых бесплодных землях мира. Одного необычнее другого. Динозавры... Словно собранные из всевозможных, самых необычных частей тела. Непостижимые, ошеломляющие, изящные, уродливые и совершенно удивительные. Это кажется нереальным - череп совсем как реквизит из фантастического фильма... Кто был самым необычным существом в таинственном затерянном мире динозавров? И как они вообще могли появится на Земле?

    Релиз от: рип HDmitry-tv
    Продолжительность: 00: 46: 59
    Качество видео: HDTVRip
    Перевод: Одноголосый закадровый, профессиональный (АРК ТВ)
    Субтитры: отсутствуют
    Видео: AVC/H.264, 1920x1080, ~5500 Kbps
    Аудио: AAC, 2 ch, 187 Kbps (текст читал: Пётр Тобилевич)

    Общее
    Уникальный идентификатор : 117227285907479726218825008051022945872 (0x5831276E0A8DFD195B997AF6E5F75E50)
    Полное имя : F: КИНОWeirdest_Dinosaurs_1080p_HDTVRip.mkv
    Формат : Matroska
    Версия формата : Version 4/Version 2
    Размер файла : 1, 87 Гбайт
    Продолжительность : 46 м. 59 с.
    Общий поток : 5691 Кбит/сек
    Дата кодирования : UTC 2018-05-29 15: 21: 52
    Программа кодирования : mkvmerge v23.0.0 (\'The Bride Said No\') 64-bit
    Библиотека кодирования : libebml v1.3.6 + libmatroska v1.4.9
    Видео
    Идентификатор : 1
    Формат : AVC
    Формат/Информация : Advanced Video Codec
    Профиль формата : Baseline@L2
    Настройки формата : 1 Ref Frames
    Параметр CABAC формата : Нет
    Параметр RefFrames формата : 1 кадр
    Идентификатор кодека : V_MPEG4/ISO/AVC
    Продолжительность : 46 м. 59 с.
    Битрейт : 5502 Кбит/сек
    Ширина : 1920 пикселей
    Высота : 1080 пикселей
    Соотношение сторон : 16: 9
    Режим частоты кадров : Постоянный
    Частота кадров : 25, 000 кадров/сек
    Цветовое пространство : YUV
    Субдискретизация насыщенности : 4: 2: 0
    Битовая глубина : 8 бит
    Тип развёртки : Прогрессивная
    Бит/(Пиксели*Кадры) : 0.106
    Размер потока : 1, 81 Гбайт (97%)
    Default : Да
    Forced : Нет
    Аудио
    Идентификатор : 2
    Формат : AAC
    Формат/Информация : Advanced Audio Codec
    Профиль формата : LC
    Идентификатор кодека : A_AAC-2
    Продолжительность : 46 м. 59 с.
    Битрейт : 187 Кбит/сек
    Каналы : 2 канала
    Расположение каналов : Front: L R
    Частота : 48, 0 КГц
    Частота кадров : 46, 875 кадров/сек (1024 SPF)
    Метод сжатия : С потерями
    Задержка видео : 7 мс.
    Размер потока : 62, 8 Мбайт (3%)
    Язык : Russian
    Default : Да
    Forced : Нет

    Скриншоты для ознакомления



    Все одноименные релизы в Клубе
    Время раздачи: с 18: 00 до 23: 00 (до появления первых 3-5 скачавших)


    NG. Чудо-юдо динозавры/Bizarre Dinosaurs/Weirdest Dinosaurs (2008) HDTVRip [H.264/1080p-LQ]
    Рейтинг →
     (голосов: 1, оценка 4/5, голосовать можно 1 раз )

    Другие торренты по теме:

  • Чудо-юдо (2017) TS [AD]
  • Чудо-Юдо (2017) WEB-DLRip [H.264]
  • Чудо-юдо (2017) WEB-DLRip
  • Чудо-юдо (2017) WEB-DL [H.264 / 1080p-LQ]
  • Чудо-Юдо (2017) WEB-DLRip [576p] iPad
  • Чудо-Юдо (2017) WEB-DL [1080p] ATV


    • Комментарии (0):

      Информация

      Информация

        Посетители, находящиеся в группе Гости, не могут оставлять комментарии в данной новости.

        ↓ Меню




        ↓ Опрос

        Вы добавили сайт в закладки?
        Да
        Нет


        Top 10 за месяц (Передачи)