.
Авторизация | Регистрация
Хочешь лучшие торренты? Добавь свой email!
Добавить

Торрент скачать бесплатно

  • support: webmaster@btracker.org
» » Китайская мечта. Путь возрождения (2018) DVB [H.264 / 1080i-LQ] торрент скачать бесплатно


    Китайская мечта. Путь возрождения (2018) DVB [H.264 / 1080i-LQ] торрент скачать бесплатно

    Опубликовал: Админ | Дата: 29-05-2018, 05:00 | .torrent скачали: 1

    Китайская мечта. Путь возрождения (2018) DVB [H.264 / 1080i-LQ]Телекомпания: Россия/ВГТРК, Град
    Жанр: Документальный, История
    Участники: Фильм Алексея Денисова

    Описание

    1 октября 1949 года в Пекине лидер китайских коммунистов Мао Цзэдун провозгласил рождение нового государства – Китайской Народной Республики. В точном переводе на русский – Срединного процветающего государства общности и единства народа. Так начался новый период в истории пятитысячной китайской цивилизации. Первой страной, признавшей КНР, стал Советский Союз. Дипломатические отношения между двумя государствами были установлены уже на следующий день, 2 октября 1949 года. С тех пор прошло почти семь десятилетий. Сегодня Китай стал второй экономикой мира. Пятая часть всех товаров планеты производится в Поднебесной, в том числе 70% мобильных телефонов и 82% персональных компьютеров. Из десяти крупнейших портов мира – шесть находятся в Китае. Страна является мировым лидером в судостроении, производстве угля, стали, цемента, пшеницы, солнечных батарей и других товаров. Однако так было не всегда. Нынешнему благополучию предшествовал долгий путь страданий, борьбы, искреннего энтузиазма и напряженного труда сотен миллионов людей. Культурная революция, начатая в 1966 году по инициативе Мао Цзэдуна, была одним из самых сложных и драматичных периодов в истории Китайской Народной Республики. Она сопровождалась несправедливыми репрессиями и тяжелыми испытаниями для миллионов людей. В то время многие образованные жители страны были отправлены на сельскохозяйственные работы в беднейшие районы. Среди них оказался и Си Цзиньпин, чье имя сегодня известно каждому жителю Поднебесной. Здесь, по его собственному признанию, он глубоко переосмыслил свою жизнь и получил многие базовые ценности. Съемочная группа телеканала Россия впервые покажет телезрителям уникальные кадры из землянки, вырытой прямо в горе, где Си Цзиньпин жил вместе с пятью товарищами. В фильме также – эксклюзивное интервью будущего китайского лидера, в котором он рассказывает о том, как, преодолевая голод, холод и работая на земле, он пришел к убеждению посвятить свою жизнь Родине и народу. Как развивается российско-китайское сотрудничество сегодня, как китайские реформы последних 30 лет и новые технологии помогают улучшить жизнь миллионов китайских граждан, а также последние достижения Китая в различных областях науки и техники – в новом фильме Алексея Денисова.
    Продолжительность: 00: 52: 03
    Качество видео: DVB 1080i
    Субтитры: Русские, телетекст
    Видео: AVC/H.264, 1920x1080, ~6128 Kbps
    Аудио: MP2, 2 ch, 224 kbps

    Общее
    Идентификатор : 16 (0x10)
    Полное имя : Китайская мечта_Путь возрождения_HD.ts
    Формат : MPEG-TS
    Размер файла : 2, 43 Гбайт
    Продолжительность : 52 м. 5 с.
    Режим общего битрейта : Переменный
    Общий поток : 6684 Кбит/сек
    Видео
    Идентификатор : 1901 (0x76D)
    Идентификатор меню : 901 (0x385)
    Формат : AVC
    Формат/Информация : Advanced Video Codec
    Профиль формата : High@L4
    Настройки формата : CABAC/3 Ref Frames
    Параметр CABAC формата : Да
    Параметр RefFrames формата : 3 кадра
    Идентификатор кодека : 27
    Продолжительность : 52 м. 4 с.
    Битрейт : 6128 Кбит/сек
    Ширина : 1920 пикселей
    Высота : 1080 пикселей
    Соотношение сторон : 16: 9
    Частота кадров : 25, 000 кадров/сек
    Стандарт вещания : PAL
    Цветовое пространство : YUV
    Субдискретизация насыщенности : 4: 2: 0
    Битовая глубина : 8 бит
    Тип развёртки : Чересстрочная
    Метод сохранения типа развёртки : Раздельные поля
    Порядок развёртки : Верхнее поле первое
    Бит/(Пиксели*Кадры) : 0.118
    Размер потока : 2, 23 Гбайт (92%)
    Цветовой диапазон : Limited
    Основные цвета : BT.709
    Характеристики трансфера : BT.709
    Коэффициенты матрицы : BT.709
    Аудио
    Идентификатор : 2901 (0xB55)
    Идентификатор меню : 901 (0x385)
    Формат : MPEG Audio
    Версия формата : Version 1
    Профиль формата : Layer 2
    Идентификатор кодека : 4
    Продолжительность : 52 м. 4 с.
    Вид битрейта : Постоянный
    Битрейт : 224 Кбит/сек
    Каналы : 2 канала
    Частота : 48, 0 КГц
    Метод сжатия : С потерями
    Задержка видео : 52 мс.
    Размер потока : 83, 4 Мбайт (3%)
    Язык : std
    Язык, дополнительно : Clean effects

    Скриншоты для ознакомления



    Все одноименные релизы в Клубе
    Время раздачи: Сб-Вс с 09: 00 до 23: 30 (до появления первых 3-5 скачавших)


    Китайская мечта. Путь возрождения (2018) DVB [H.264/1080i-LQ]
    Рейтинг →
     (голосов: 1, оценка 4/5, голосовать можно 1 раз )

    Другие торренты по теме:

  • Шэн Юэ | Университет имени Сунь Ятсена в Москве и китайская революция. Воспоминания (2008) [DJVU]
  • С. Р. Белоусов | Китайская версия «государственного социализма» [20—40-е годы XX в.] (1989) [PDF] скачать через торрент бесплатно
  • Китайская камасутра / Chinese Kamasutra (1993) DVDRip
  • Александр Казак | Девочки-шпионы, или Великая Китайская стена (2016) [FB2]
  • Лао Минь | Китайская медицина на каждый день для каждой семьи. Полный атлас целительных точек. 200 упражнений, восстанавливающих энергию (2016) [FB2]
  • Марсель Гране | Китайская цивилизация (2016) [EPUB, FB2, MOBI, PDF]
  • Право голоса. Китайская двадцатка (02.09.2016) SATRip
  • Китайская камера пыток / Mun ching sap daai huk ying (1994) DVDRip


    • Комментарии (0):

      Информация

      Информация

        Посетители, находящиеся в группе Гости, не могут оставлять комментарии в данной новости.

        ↓ Меню




        ↓ Опрос

        Вы добавили сайт в закладки?
        Да
        Нет


        Top 10 за месяц (Передачи)