.
Авторизация | Регистрация
Хочешь лучшие торренты? Добавь свой email!
Добавить

Торрент скачать бесплатно

  • support: webmaster@btracker.org
» » Фашизм в цвете / Fascism in Colour (2006) HDTVRip [H.264 / 720p-LQ] (Серии 1 из 2) (Обновляемая) торрент скачать бесплатно


    Фашизм в цвете / Fascism in Colour (2006) HDTVRip [H.264 / 720p-LQ] (Серии 1 из 2) (Обновляемая) торрент скачать бесплатно

    Опубликовал: Админ | Дата: 29-05-2018, 05:00 | .torrent скачали: 1

    Фашизм в цвете / Fascism in Colour (2006) HDTVRip [H.264 / 720p-LQ] (Серии 1 из 2) (Обновляемая)Производство: Великобритания, IWC Media Limited
    Жанр: Документальный, реконструкция, история
    Режиссер: Крис Оксли
    Участники: Билл Патерсон, Стефано Фредни, Эмилио Джентиле...

    Описание

    До сих пор просматривая архивные пленки событий первой половины ХХ века, мы видели черно-белые хроники давно минувших дней. Но теперь у нас появилась уникальная возможность увидеть реалии того времени в цвете. В фильмы использованы редкие цветные фотографии и видеоматериалы, а также реконструкции прошлых событий...

    Релиз от: рип skorpionN
    Продолжительность: 00: 45: 16
    Качество видео: HDTVRip
    Перевод: Одноголосый закадровый, профессиональный
    Субтитры: отсутствуют
    Видео: AVC/H.264, 1280х720, ~5000 Kbps
    Аудио: AC3, 2 ch, 192 Kbps

    Общее
    Уникальный идентификатор : 212080149494709431744731784597185994541 (0x9F8D26AB5B5B6E338EF605D4E65F9F2D)
    Полное имя : F: КИНОFascism in color_720p2_Mussolini in Power.mkv
    Формат : Matroska
    Версия формата : Version 4/Version 2
    Размер файла : 1, 64 Гбайт
    Продолжительность : 45 м. 16 с.
    Режим общего битрейта : Переменный
    Общий поток : 5185 Кбит/сек
    Дата кодирования : UTC 2018-05-28 13: 02: 00
    Программа кодирования : mkvmerge v6.9.1 (\'Blue Panther\') 64bit built on Apr 18 2014 18: 23: 38
    Библиотека кодирования : libebml v1.3.0 + libmatroska v1.4.1
    Видео
    Идентификатор : 1
    Формат : AVC
    Формат/Информация : Advanced Video Codec
    Профиль формата : High@L4.1
    Настройки формата : CABAC/3 Ref Frames
    Параметр CABAC формата : Да
    Параметр RefFrames формата : 3 кадра
    Идентификатор кодека : V_MPEG4/ISO/AVC
    Продолжительность : 45 м. 16 с.
    Вид битрейта : Переменный
    Битрейт : 5000 Кбит/сек
    Максимальный битрейт : 8000 Кбит/сек
    Ширина : 1280 пикселей
    Высота : 720 пикселей
    Соотношение сторон : 16: 9
    Режим частоты кадров : Постоянный
    Частота кадров : 25, 000 кадров/сек
    Стандарт вещания : NTSC
    Цветовое пространство : YUV
    Субдискретизация насыщенности : 4: 2: 0
    Битовая глубина : 8 бит
    Тип развёртки : Прогрессивная
    Бит/(Пиксели*Кадры) : 0.217
    Размер потока : 1, 55 Гбайт (94%)
    Библиотека кодирования : x264 core 114
    Настройки программы : cabac=1/ref=3/deblock=1: 0: 0/analyse=0x3: 0x113/me=hex/subme=7/psy=1/psy_rd=1.00: 0.00/mixed_ref=1/me_range=16/chroma_me=1/trellis=1/8x8dct=1/cqm=2/deadzone=21, 11/fast_pskip=1/chroma_qp_offset=-4/threads=6/sliced_threads=0/slices=1/nr=0/decimate=1/interlaced=0/constrained_intra=0/bframes=3/b_pyramid=0/b_adapt=1/b_bias=0/direct=1/weightb=1/open_gop=0/weightp=2/keyint=250/keyint_min=25/scenecut=40/intra_refresh=0/rc_lookahead=40/rc=2pass/mbtree=1/bitrate=5000/ratetol=1.0/qcomp=0.60/qpmin=5/qpmax=69/qpstep=4/cplxblur=20.0/qblur=0.5/vbv_maxrate=8000/vbv_bufsize=7995/nal_hrd=vbr/ip_ratio=1.40/aq=1: 1.00
    Default : Да
    Forced : Нет
    Цветовой диапазон : Limited
    Основные цвета : BT.709
    Характеристики трансфера : BT.709
    Коэффициенты матрицы : BT.709
    Аудио
    Идентификатор : 2
    Формат : AC-3
    Формат/Информация : Audio Coding 3
    Идентификатор кодека : A_AC3
    Продолжительность : 45 м. 16 с.
    Вид битрейта : Постоянный
    Битрейт : 192 Кбит/сек
    Каналы : 2 канала
    Расположение каналов : Front: L R
    Частота : 48, 0 КГц
    Частота кадров : 31, 250 кадров/сек (1536 SPF)
    Битовая глубина : 16 бит
    Метод сжатия : С потерями
    Размер потока : 62, 2 Мбайт (4%)
    ServiceKind/String : Complete Main
    Default : Да
    Forced : Нет


    Фашизм в цвете/Fascism in Colour (2006) HDTVRip [H.264/720p-LQ] (Серии 1 из 2) (Обновляемая)
    Рейтинг →
     (голосов: 1, оценка 3/5, голосовать можно 1 раз )

    Другие торренты по теме:

  • Р. Пальм Датт | Фашизм и социалистическая революция (1935) [DJVU] скачать через торрент бесплатно
  • И. Эльвин | Союз креста и свастики [Фашизм и религия в Германии] (1934) [DJVU] скачать через торрент бесплатно
  • С. Бондаренко | Германский фашизм и Советская Украина (1934) [DJVU]
  • А. Сидоров | Фашизм и городские средние слои в Германии (1936) [DJVU]
  • Обыкновенный фашизм (1965) DVDRip (2 части из 2) скачать через торрент бесплатно
  • Б. Н. Бессонов | Фашизм: идеология, политика (1985) [DJVU] скачать через торрент бесплатно
  • Г. Майер, П. Штир | Фашизм и политический клерикализм (1963) [DJVU] скачать через торрент бесплатно
  • А. А. Аникеев | Германский фашизм и крестьянство [1933-1945] (1979) [DJVU]


    • Комментарии (0):

      Информация

      Информация

        Посетители, находящиеся в группе Гости, не могут оставлять комментарии в данной новости.

        ↓ Меню




        ↓ Опрос

        Вы добавили сайт в закладки?
        Да
        Нет


        Top 10 за месяц (Передачи)