.
Авторизация | Регистрация
Хочешь лучшие торренты? Добавь свой email!
Добавить

Торрент скачать бесплатно

  • support: webmaster@btracker.org
» » NGW: Гонка жизни / Race of Life (2015) HDTVRip [H.264 / 1080p-LQ] (Сезон 1, эпизоды 8 из 13) [PR] торрент скачать бесплатно


    NGW: Гонка жизни / Race of Life (2015) HDTVRip [H.264 / 1080p-LQ] (Сезон 1, эпизоды 8 из 13) [PR] торрент скачать бесплатно

    Опубликовал: Админ | Дата: 29-05-2018, 05:00 | .torrent скачали: 1

    NGW: Гонка жизни / Race of Life (2015) HDTVRip [H.264 / 1080p-LQ] (Сезон 1, эпизоды 8 из 13) [PR]Производство: Чехия, США, Nat Geo Wild
    Жанр: Документальный, природа, флора, фауна
    Режиссер: Макс Серио

    Описание

    Это битва за выживание, главное в этой гонке - быть на шаг впереди: шаг, который может быть решающим между жизнью и смертью. И с восходом солнца гонка начинается с новой силой: от могучих хищников до миниатюрных созданий.

    Релиз от: рип Zakol
    Продолжительность: 8х~00: 22: 00
    Качество видео: HDTV
    Перевод: Одноголосый закадровый, профессиональный (Велес)
    Субтитры: отсутствуют
    Видео: AVC/H.264, 1920x1080, ~4500 Kbps
    Аудио: AC3, 2 ch, 192 Kbps (текст читал: Станислав Войнич)

    Общее
    Уникальный идентификатор : 115061845317179654703749229448163570924 (0x56901AF740C262BB877DFC682C6934EC)
    Полное имя : F: КИНОГонка жизни 1080p (2015)S1, Ep10. Подводные хищники 1080p.mkv
    Формат : Matroska
    Версия формата : Version 4/Version 2
    Размер файла : 739 Мбайт
    Продолжительность : 21 м. 59 с.
    Общий поток : 4696 Кбит/сек
    Программа кодирования : XviD4PSP 7.0.451 DAILY
    Библиотека кодирования : Lavf57.71.100
    ErrorDetectionType : Per level 1
    ENCODING_INFO : MPEGTS MKV/H264 X264 VBR-2P 4500kbps HQ/MP2 AC3 CBR 192kbps
    Видео
    Идентификатор : 1
    Формат : AVC
    Формат/Информация : Advanced Video Codec
    Профиль формата : High@L4
    Настройки формата : CABAC/4 Ref Frames
    Параметр CABAC формата : Да
    Параметр RefFrames формата : 4 кадра
    Идентификатор кодека : V_MPEG4/ISO/AVC
    Продолжительность : 21 м. 59 с.
    Битрейт : 4500 Кбит/сек
    Ширина : 1920 пикселей
    Высота : 1080 пикселей
    Соотношение сторон : 16: 9
    Режим частоты кадров : Постоянный
    Частота кадров : 25, 000 кадров/сек
    Цветовое пространство : YUV
    Субдискретизация насыщенности : 4: 2: 0
    Битовая глубина : 8 бит
    Тип развёртки : Прогрессивная
    Бит/(Пиксели*Кадры) : 0.087
    Размер потока : 694 Мбайт (94%)
    Библиотека кодирования : x264 core 155 r2901M 7d0ff22
    Настройки программы : cabac=1/ref=3/deblock=1: -3: -3/analyse=0x3: 0x113/me=hex/subme=7/psy=1/psy_rd=1.00: 0.20/mixed_ref=1/me_range=16/chroma_me=1/trellis=1/8x8dct=1/cqm=0/deadzone=21, 11/fast_pskip=1/chroma_qp_offset=-3/threads=9/lookahead_threads=1/sliced_threads=0/nr=0/decimate=1/interlaced=0/bluray_compat=0/constrained_intra=0/bframes=3/b_pyramid=2/b_adapt=2/b_bias=0/direct=3/weightb=1/open_gop=0/weightp=2/keyint=250/keyint_min=25/scenecut=40/intra_refresh=0/rc_lookahead=40/rc=2pass/mbtree=1/bitrate=4500/ratetol=1.0/qcomp=0.60/qpmin=0/qpmax=69/qpstep=4/cplxblur=20.0/qblur=0.5/ip_ratio=1.40/aq=1: 1.00
    Default : Да
    Forced : Нет
    Аудио
    Идентификатор : 2
    Формат : AC-3
    Формат/Информация : Audio Coding 3
    Идентификатор кодека : A_AC3
    Продолжительность : 21 м. 59 с.
    Вид битрейта : Постоянный
    Битрейт : 192 Кбит/сек
    Каналы : 2 канала
    Расположение каналов : Front: L R
    Частота : 48, 0 КГц
    Частота кадров : 31, 250 кадров/сек (1536 SPF)
    Битовая глубина : 16 бит
    Метод сжатия : С потерями
    Размер потока : 30, 2 Мбайт (4%)
    Язык : Russian
    ServiceKind/String : Complete Main
    Default : Да
    Forced : Нет


    NGW: Гонка жизни/Race of Life (2015) HDTVRip [H.264/1080p-LQ] (Сезон 1, эпизоды 8 из 13) [PR]
    Рейтинг →
     (голосов: 1, оценка 4/5, голосовать можно 1 раз )

    Другие торренты по теме:

  • Велоспорт. Чемпионат мира по шоссе 2014. Индивидуальная гонка с раздельным стартом / Road World Championships 2014. (24.09.2014) HDTVRip [H.264 / 1080p-LQ] [EN]
  • Велоспорт. Чемпионат мира по шоссейным велогонкам 2014. Командная гонка / Road World Championships 2014. (21.09.2014) HDTVRip [H.264 / 1080p-LQ] [EN]
  • Формула 1. Гран-При Сингапура. Гонка (2014) HDTVRip [H.264 / 720p] [hand made 50fps]
  • MotoGP. Этап 14 / 18. Гран При Испания Арагон. Гонка (2014) HDTVRip [H.264 / 720p] [RU, EN, ES, IT] [hand made 50fps]
  • Велоспорт. Чемпионат мира по шоссе 2014. Групповая гонка / Road World Championships 2014. (28.09.2014) HDTVRip [H.264 / 1080p-LQ] [EN] скачать через торрент бесплатно
  • Формула 1. Гран-При Японии. Гонка (2014) HDTVRip [H.264 / 720p] [hand made 50fps] скачать через торрент бесплатно
  • Формула 1. Гран-При России. Гонка (2014) HDTVRip [H.264 / 720p] [hand made 50fps] скачать через торрент бесплатно
  • Формула 1. Гран-При России. Гонка (2014) HDTVRip [H.264] скачать через торрент бесплатно


    • Комментарии (0):

      Информация

      Информация

        Посетители, находящиеся в группе Гости, не могут оставлять комментарии в данной новости.

        ↓ Меню




        ↓ Опрос

        Вы добавили сайт в закладки?
        Да
        Нет


        Top 10 за месяц (Передачи)