.
Авторизация | Регистрация
Хочешь лучшие торренты? Добавь свой email!
Добавить

Торрент скачать бесплатно

  • support: webmaster@btracker.org
» » Баскетбол. Лига чемпионов ФИБА 2017-2018. Финал 4-х. Афины (Греция). 1 / 2 финала. АЕК (Греция) — УКАМ Мурсия (Испания) (2018) WEB [H.264 / 720p-LQ] [EN] торрент скачать бесплатно


    Баскетбол. Лига чемпионов ФИБА 2017-2018. Финал 4-х. Афины (Греция). 1 / 2 финала. АЕК (Греция) — УКАМ Мурсия (Испания) (2018) WEB [H.264 / 720p-LQ] [EN] торрент скачать бесплатно

    Опубликовал: Админ | Дата: 28-05-2018, 05:00 | .torrent скачали: 0

    Баскетбол. Лига чемпионов ФИБА 2017-2018. Финал 4-х. Афины (Греция). 1 / 2 финала. АЕК (Греция) — УКАМ Мурсия (Испания) (2018) WEB [H.264 / 720p-LQ] [EN]Жанр: Спорт

    Описание
    04 мая 2018 года, пятница. 21: 30 МСК
    Баскетбол. Лига чемпионов ФИБА 2017-2018. Финал четырёх. Афины (Греция)
    1/2 финала.
    АЕК (Афины, Греция) — УКАМ Мурсия (Мурсия, Испания)
    Стадион: O.A.K.A.- Олимпик Индур Холл (Афины, Греция) , вместимость: 19250
    Судьи: Срдан Дозаи ( Хорватия), Толга Шахин (Италия), Мариус Чулин (Румыния)
    Продолжительность: 02: 10: 11
    Качество видео: WEB
    Язык озвучки: Английский
    Субтитры: отсутствуют
    Видео: AVC/H.264, 1280x720 (16: 9), ~2351 Kbps
    Аудио: AAC, 2 ch, 44, 1 kHz, ~128 Kbps

    Общее
    Уникальный идентификатор : 332724481778599764359723025925712034651 (0xFA50677E2932D91E312D83FAD332BB5B)
    Полное имя : F: SPORTБаскетболBasketball Champions League FIBA 17-18(04.05.2018)_BChL FIBA 17-18.F-4.SF2. AEK(GRC)–UCAM Murcia(ESP).mkv
    Формат : Matroska
    Версия формата : Version 4/Version 2
    Размер файла : 2, 25 Гбайт
    Продолжительность : 2 ч. 10 м.
    Режим общего битрейта : Переменный
    Общий поток : 2479 Кбит/сек
    Дата кодирования : UTC 2018-05-25 19: 20: 56
    Программа кодирования : mkvmerge v23.0.0 (\'The Bride Said No\') 32-bit
    Библиотека кодирования : libebml v1.3.6 + libmatroska v1.4.9
    Видео
    Идентификатор : 1
    Формат : AVC
    Формат/Информация : Advanced Video Codec
    Профиль формата : High@L4
    Настройки формата : CABAC/4 Ref Frames
    Параметр CABAC формата : Да
    Параметр RefFrames формата : 4 кадра
    Идентификатор кодека : V_MPEG4/ISO/AVC
    Продолжительность : 2 ч. 10 м.
    Вид битрейта : Переменный
    Битрейт : 2351 Кбит/сек
    Максимальный битрейт : 2686 Кбит/сек
    Ширина : 1280 пикселей
    Высота : 720 пикселей
    Соотношение сторон : 16: 9
    Режим частоты кадров : Постоянный
    Частота кадров : 25, 000 кадров/сек
    Стандарт вещания : PAL
    Цветовое пространство : YUV
    Субдискретизация насыщенности : 4: 2: 0
    Битовая глубина : 8 бит
    Тип развёртки : Прогрессивная
    Бит/(Пиксели*Кадры) : 0.102
    Размер потока : 2, 14 Гбайт (95%)
    Default : Да
    Forced : Нет
    Цветовой диапазон : Limited
    Основные цвета : BT.709
    Характеристики трансфера : BT.709
    Коэффициенты матрицы : BT.709
    Аудио
    Идентификатор : 2
    Формат : AAC
    Формат/Информация : Advanced Audio Codec
    Профиль формата : LC
    Идентификатор кодека : A_AAC-2
    Продолжительность : 2 ч. 10 м.
    Битрейт : 126 Кбит/сек
    Каналы : 2 канала
    Расположение каналов : Front: L R
    Частота : 44, 1 КГц
    Частота кадров : 43, 066 кадра/сек (1024 SPF)
    Метод сжатия : С потерями
    Размер потока : 117 Мбайт (5%)
    Язык : English
    Default : Да
    Forced : Нет

    Скриншоты для ознакомления



    Все одноименные релизы в Клубе
    Время раздачи: 24/7 (около 1 месяца)


    Баскетбол. Лига чемпионов ФИБА 2017-2018. Финал 4-х. Афины (Греция). 1/2 финала. АЕК (Греция) — УКАМ Мурсия (Испания) (2018) WEB [H.264/720p-LQ] [EN]
    Рейтинг →
     (голосов: 1, оценка 3/5, голосовать можно 1 раз )

    Другие торренты по теме:

  • Баскетбол. Лига чемпионов ФИБА 2016-2017. Группа B. 1-й тур. Химик (Украина) - Автодор (Россия) (19.10.2016) SATRip [H.264]
  • Баскетбол. Лига чемпионов ФИБА 2016-2017. Группа B. 2-й тур. Автодор (Россия) — Катая (Финляндия) (26.10.2016) HDTVRip [H.264 / 720p-LQ][hand made 50fps]
  • Баскетбол. Лига чемпионов ФИБА 2016-2017. Группа H. 2-й тур. Енисей (Россия) — Демир Иншаа (Турция) (25.10.2016) WEB-DL [H.264 / 720p-LQ][INT]
  • Баскетбол. Лига чемпионов ФИБА 2017-2018. Группа C. 1-й тур. Умана Рейер (Италия) – Банвит (Турция) (10.10.2017) WEB-DL [H.264 / 720p-LQ] [EN]
  • Баскетбол. Лига чемпионов ФИБА 2017-2018. Группа B. 1-й тур. Нептунас (Литва) – Элан Шалон (Франция) (10.10.2017) WEB-DL [H.264 / 720p-LQ] [EN]
  • Баскетбол. Лига чемпионов ФИБА 2017-2018. Группа A. 1-й тур. AC Монако (Монако) – Ювентус (Литва) (10.10.2017) WEB-DL [H.264 / 720p-LQ] [EN]
  • Баскетбол. Лига чемпионов ФИБА 2017-2018. Группа A. 1-й тур. Ольденбург (Германия) – Енисей (Россия) (11.10.2017) WEB-DL [H.264 / 720p-LQ] [EN]
  • Баскетбол. Лига чемпионов ФИБА 2017-2018. Группа A. 1-й тур. Ольденбург (Германия) – Енисей (Россия) (11.10.2017) WEB-DLRip


    • Комментарии (0):

      Информация

      Информация

        Посетители, находящиеся в группе Гости, не могут оставлять комментарии в данной новости.

        ↓ Меню




        ↓ Опрос

        Вы добавили сайт в закладки?
        Да
        Нет


        Top 10 за месяц (Передачи)