.
Авторизация | Регистрация
Хочешь лучшие торренты? Добавь свой email!
Добавить

Торрент скачать бесплатно

  • support: webmaster@btracker.org
» » Баскетбол. Лига чемпионов ФИБА 2017-2018. Финал 4-х. Афины (Греция). 1 / 2 финала. АЕК (Греция) — УКАМ Мурсия (Испания) (2018) IPTVRip торрент скачать бесплатно


    Баскетбол. Лига чемпионов ФИБА 2017-2018. Финал 4-х. Афины (Греция). 1 / 2 финала. АЕК (Греция) — УКАМ Мурсия (Испания) (2018) IPTVRip торрент скачать бесплатно

    Опубликовал: Админ | Дата: 28-05-2018, 05:00 | .torrent скачали: 0

    Баскетбол. Лига чемпионов ФИБА 2017-2018. Финал 4-х. Афины (Греция). 1 / 2 финала. АЕК (Греция) — УКАМ Мурсия (Испания) (2018) IPTVRipТелекомпания: Матч! Арена
    Жанр: Спорт
    Комментатор: Евгений Седых

    Описание
    04 мая 2018 года, пятница. 21: 30 МСК
    Баскетбол. Лига чемпионов ФИБА 2017-2018. Финал четырёх. Афины (Греция)
    1/2 финала.
    АЕК (Афины, Греция) — УКАМ Мурсия (Мурсия, Испания)
    Стадион: O.A.K.A.- Олимпик Индур Холл (Афины, Греция) , вместимость: 19250
    Судьи: Срдан Дозаи ( Хорватия), Толга Шахин (Италия), Мариус Чулин (Румыния)
    Релиз от: chedder_nukakby
    Продолжительность: 01: 53: 03
    Качество видео: IPTVRip
    Язык озвучки: Русский
    Субтитры: отсутствуют
    Видео: AVC/H.264, 720x576@1044x576, ~3278 Kbps
    Аудио: AAC, 2 ch, 44, 1 kHz, ~128 Kbps

    Общее
    Уникальный идентификатор : 90311910874363558099119027297432366705 (0x43F170FC3BC27D3B1859EBD01D73EE71)
    Полное имя : F: SPORTБаскетболBasketball Champions League FIBA 17-18(04.05.2018)_FIBA BChL 17-18.F-4.SF2. AEK(GRC)–UCAM Murcia(ESP)_576i.mkv
    Формат : Matroska
    Версия формата : Version 4/Version 2
    Размер файла : 2, 69 Гбайт
    Продолжительность : 1 ч. 53 м.
    Общий поток : 3406 Кбит/сек
    Дата кодирования : UTC 2018-05-25 21: 53: 32
    Программа кодирования : mkvmerge v23.0.0 (\'The Bride Said No\') 32-bit
    Библиотека кодирования : libebml v1.3.6 + libmatroska v1.4.9
    Видео
    Идентификатор : 1
    Формат : AVC
    Формат/Информация : Advanced Video Codec
    Профиль формата : High@L3
    Настройки формата : CABAC/4 Ref Frames
    Параметр CABAC формата : Да
    Параметр RefFrames формата : 4 кадра
    Параметр GOP формата : M=4, N=28
    Идентификатор кодека : V_MPEG4/ISO/AVC
    Продолжительность : 1 ч. 53 м.
    Битрейт : 3278 Кбит/сек
    Ширина : 720 пикселей
    Высота : 576 пикселей
    Соотношение сторон : 16: 9
    Соотношение сторон в оригинале : 16: 9
    Режим частоты кадров : Постоянный
    Частота кадров : 25, 000 кадров/сек
    Стандарт вещания : Component
    Цветовое пространство : YUV
    Субдискретизация насыщенности : 4: 2: 0
    Битовая глубина : 8 бит
    Тип развёртки : Чересстрочная
    Метод сохранения типа развёртки : Раздельные поля
    Порядок развёртки : Верхнее поле первое
    Бит/(Пиксели*Кадры) : 0.316
    Размер потока : 2, 59 Гбайт (96%)
    Default : Да
    Forced : Нет
    Цветовой диапазон : Limited
    Основные цвета : BT.601 PAL
    Характеристики трансфера : BT.470 System B/G
    Коэффициенты матрицы : BT.470 System B/G
    Аудио
    Идентификатор : 2
    Формат : AAC
    Формат/Информация : Advanced Audio Codec
    Профиль формата : LC
    Идентификатор кодека : A_AAC-2
    Продолжительность : 1 ч. 53 м.
    Битрейт : 126 Кбит/сек
    Каналы : 2 канала
    Расположение каналов : Front: L R
    Частота : 44, 1 КГц
    Частота кадров : 43, 066 кадра/сек (1024 SPF)
    Метод сжатия : С потерями
    Размер потока : 102 Мбайт (4%)
    Язык : Russian
    Default : Да
    Forced : Нет

    Скриншоты для ознакомления



    Все одноименные релизы в Клубе
    Время раздачи: 24/7 (около 1 месяца)


    Баскетбол. Лига чемпионов ФИБА 2017-2018. Финал 4-х. Афины (Греция). 1/2 финала. АЕК (Греция) — УКАМ Мурсия (Испания) (2018) IPTVRip
    Рейтинг →
     (голосов: 1, оценка 3/5, голосовать можно 1 раз )

    Другие торренты по теме:

  • Баскетбол. Лига чемпионов ФИБА 2016-2017. Группа B. 1-й тур. Химик (Украина) - Автодор (Россия) (19.10.2016) SATRip [H.264]
  • Баскетбол. Лига чемпионов ФИБА 2016-2017. Группа B. 2-й тур. Автодор (Россия) — Катая (Финляндия) (26.10.2016) HDTVRip [H.264 / 720p-LQ][hand made 50fps]
  • Баскетбол. Лига чемпионов ФИБА 2016-2017. Группа H. 2-й тур. Енисей (Россия) — Демир Иншаа (Турция) (25.10.2016) WEB-DL [H.264 / 720p-LQ][INT]
  • Баскетбол. Лига чемпионов ФИБА 2017-2018. Группа C. 1-й тур. Умана Рейер (Италия) – Банвит (Турция) (10.10.2017) WEB-DL [H.264 / 720p-LQ] [EN]
  • Баскетбол. Лига чемпионов ФИБА 2017-2018. Группа B. 1-й тур. Нептунас (Литва) – Элан Шалон (Франция) (10.10.2017) WEB-DL [H.264 / 720p-LQ] [EN]
  • Баскетбол. Лига чемпионов ФИБА 2017-2018. Группа A. 1-й тур. AC Монако (Монако) – Ювентус (Литва) (10.10.2017) WEB-DL [H.264 / 720p-LQ] [EN]
  • Баскетбол. Лига чемпионов ФИБА 2017-2018. Группа A. 1-й тур. Ольденбург (Германия) – Енисей (Россия) (11.10.2017) WEB-DL [H.264 / 720p-LQ] [EN]
  • Баскетбол. Лига чемпионов ФИБА 2017-2018. Группа A. 1-й тур. Ольденбург (Германия) – Енисей (Россия) (11.10.2017) WEB-DLRip


    • Комментарии (0):

      Информация

      Информация

        Посетители, находящиеся в группе Гости, не могут оставлять комментарии в данной новости.

        ↓ Меню




        ↓ Опрос

        Вы добавили сайт в закладки?
        Да
        Нет


        Top 10 за месяц (Передачи)