.
Авторизация | Регистрация
Хочешь лучшие торренты? Добавь свой email!
Добавить

Торрент скачать бесплатно

  • support: webmaster@btracker.org
» » Футбол. Лига Чемпионов УЕФА 2017-2018. Киев (Украина). Финал. Реал Мадрид (Испания) — Ливерпуль (Англия) (26.05.2018) WEB-DL [H.264 / 1080i-LQ] торрент скачать бесплатно


    Футбол. Лига Чемпионов УЕФА 2017-2018. Киев (Украина). Финал. Реал Мадрид (Испания) — Ливерпуль (Англия) (26.05.2018) WEB-DL [H.264 / 1080i-LQ] торрент скачать бесплатно

    Опубликовал: Админ | Дата: 28-05-2018, 05:00 | .torrent скачали: 0

    Футбол. Лига Чемпионов УЕФА 2017-2018. Киев (Украина). Финал. Реал Мадрид (Испания) — Ливерпуль (Англия) (26.05.2018) WEB-DL [H.264 / 1080i-LQ]Телекомпания: Матч! Футбол 1 HD
    Жанр: Спорт
    Комментаторы: Константин Генич, Денис Казанский

    Описание
    26 мая 2018 года, суббота. 21: 45 МСК
    Лига Чемпионов УЕФА 2017-2018. Киев (Украина).
    Финал
    Реал Мадрид (Мадрид, Испания) — Ливерпуль (Ливерпуль, Англия)
    Стадион: НСК Олимпийский (Киев, Украина) , вместимость: 70050
    Главный судья: Милорад Мажич (Сербия)
    Ассистенты: Милован Ристич (Сербия), Далибор Джурджевич (Сербия)
    Резервный: Клеман Турпен (Франция)
    Продолжительность: 02: 21: 27
    Качество видео: WEB-DL
    Язык озвучки: Русский
    Субтитры: отсутствуют
    Видео: AVC/H.264, 1920x1080 (16: 9), ~7901 Kbps
    Аудио: AAC, 2 ch, 48 kHz, 445 Kbps

    Общее
    Уникальный идентификатор : 185432032305971347899187525297788355129 (0x8B80E90DCA2E324CAE73BFF7731F0239)
    Полное имя : F: SPORTФутболЛига Чемпионов 2017-2018(26.05.2018)_UEFA ChLeague 17-18.Final. Real M(ESP) - Liverpool(ENG)_1080i.mkv
    Формат : Matroska
    Версия формата : Version 4/Version 2
    Размер файла : 8, 25 Гбайт
    Продолжительность : 2 ч. 21 м.
    Общий поток : 8350 Кбит/сек
    Дата кодирования : UTC 2018-05-26 23: 21: 10
    Программа кодирования : mkvmerge v23.0.0 (\'The Bride Said No\') 32-bit
    Библиотека кодирования : libebml v1.3.6 + libmatroska v1.4.9
    Видео
    Идентификатор : 1
    Формат : AVC
    Формат/Информация : Advanced Video Codec
    Профиль формата : High@L4
    Настройки формата : CABAC/4 Ref Frames
    Параметр CABAC формата : Да
    Параметр RefFrames формата : 4 кадра
    Идентификатор кодека : V_MPEG4/ISO/AVC
    Продолжительность : 2 ч. 21 м.
    Битрейт : 7901 Кбит/сек
    Ширина : 1920 пикселей
    Высота : 1080 пикселей
    Соотношение сторон : 16: 9
    Режим частоты кадров : Переменный
    Частота кадров : 50, 000 кадров/сек
    Частота кадров в оригинале : 25, 000 кадров/сек
    Стандарт вещания : Component
    Цветовое пространство : YUV
    Субдискретизация насыщенности : 4: 2: 0
    Битовая глубина : 8 бит
    Тип развёртки : Чересстрочная
    Метод сохранения типа развёртки : Раздельные поля
    Порядок развёртки : Верхнее поле первое
    Бит/(Пиксели*Кадры) : 0.076
    Размер потока : 7, 81 Гбайт (95%)
    Default : Да
    Forced : Нет
    Цветовой диапазон : Limited
    Основные цвета : BT.709
    Характеристики трансфера : BT.709
    Коэффициенты матрицы : BT.709
    Аудио
    Идентификатор : 2
    Формат : AAC
    Формат/Информация : Advanced Audio Codec
    Профиль формата : LC
    Идентификатор кодека : A_AAC-2
    Продолжительность : 2 ч. 21 м.
    Битрейт : 445 Кбит/сек
    Каналы : 2 канала
    Расположение каналов : Front: L R
    Частота : 48, 0 КГц
    Частота кадров : 46, 875 кадров/сек (1024 SPF)
    Метод сжатия : С потерями
    Размер потока : 451 Мбайт (5%)
    Язык : Russian
    Default : Да
    Forced : Нет

    Скриншоты для ознакомления



    Все одноименные релизы в Клубе
    Время раздачи: 24/7 (до 1 месяца)


    Футбол. Лига Чемпионов УЕФА 2017-2018. Киев (Украина). Финал. Реал Мадрид (Испания) — Ливерпуль (Англия) (26.05.2018) WEB-DL [H.264/1080i-LQ]
    Рейтинг →
     (голосов: 1, оценка 4/5, голосовать можно 1 раз )

    Другие торренты по теме:

  • Футбол. Лига Чемпионов 2014-15 / 1 / 8 финала. Первые матчи. 1-й день. Обзор матчей (2015) HDTVRip 720p скачать через торрент бесплатно
  • Футбол. Лига Чемпионов 2014-15 / 1 / 8 финала. Первый матч. Шальке 04 (Германия) - Реал Мадрид (Испания) ([18.02] (2015)) HDTVRip 720p | 50 fps
  • Футбол. Лига Чемпионов 2015-16. Группа B. 1-й тур Вольфсбург (Германия) - ЦСКА (Россия) (2015) HDTVRip [H.264 / 720p-LQ] скачать через торрент бесплатно
  • Футбол. Лига Чемпионов 2015-16. Группа D. 1-й тур. Манчестер Сити (Англия) - Ювентус (Италия) (2015) HDTVRip [H.264 / 720p-LQ] скачать через торрент бесплатно
  • Футбол. Лига Чемпионов 2015-16. Группа B. 1-й тур. ПСВ Эйндховен (Нидрланды) - Манчестер Юнайтед (Англия) (2015) HDTVRip [H.264 / 720p-LQ] скачать через торрент бесплатно
  • Футбол. Лига Чемпионов 2015-16. Группа A. 1-й тур. Реал Мадрид (Испания) - Шахтёр (Украина) (2015) HDTVRip [H.264 / 720p-LQ] [hand made 50fps] скачать через торрент бесплатно
  • Футбол. Лига Европы 2015-16. Группа B. 1-й тур. Бордо (Франция) - Ливерпуль (Англия) (2015) HDTVRip [H.264 / 720p-LQ] скачать через торрент бесплатно
  • Футбол. Лига Европы 2015-16. Группа H. 1-й тур. Спортинг (Лиссабон, Португалия) – Локомотив (Москва, Россия) (2015) HDTVRip [H.264 / 720p-LQ] скачать через торрент бесплатно


    • Комментарии (0):

      Информация

      Информация

        Посетители, находящиеся в группе Гости, не могут оставлять комментарии в данной новости.

        ↓ Меню




        ↓ Опрос

        Вы добавили сайт в закладки?
        Да
        Нет


        Top 10 за месяц (Передачи)