.
Авторизация | Регистрация
Хочешь лучшие торренты? Добавь свой email!
Добавить

Торрент скачать бесплатно

  • support: webmaster@btracker.org
» » Формула 1. Сезон 2018. 6-й Этап. Гран-при Монако. Квалификация. Полная версия (26.05.2018) HDTVRip [H.264 / 720p-LQ] [hand made 50fps] торрент скачать бесплатно


    Формула 1. Сезон 2018. 6-й Этап. Гран-при Монако. Квалификация. Полная версия (26.05.2018) HDTVRip [H.264 / 720p-LQ] [hand made 50fps] торрент скачать бесплатно

    Опубликовал: Админ | Дата: 28-05-2018, 05:00 | .torrent скачали: 0

    Формула 1. Сезон 2018. 6-й Этап. Гран-при Монако. Квалификация. Полная версия (26.05.2018) HDTVRip [H.264 / 720p-LQ] [hand made 50fps]Телекомпания: F1 TV
    Жанр: Спорт

    Описание
    26 мая 2018 года, суббота. 16: 00 МСК
    6-й Этап сезон любимого сериалаа 2018 года. Гран-при Монако. Монте-Карло (Монако).
    Квалификация
    Арена: Городская трасса Монте-Карло (Монте-Карло, Монако)
    Продолжительность: 01: 41: 54
    Качество видео: HDTVRip
    Язык озвучки: Русский, Украинский, Интершум
    Субтитры: отсутствуют
    Видео: AVC/H.264, 1280x720 (16: 9), ~4851 Kbps, 50 fps
    Аудио #1: AC3, 2 ch, 48 kHz, 192 Kbps | Русский (Матч ТВ: А. Попов, Н. Фабричнова)
    Аудио #2: AC3, 2 ch, 48 kHz, 192 Kbps | Украинский (1 Auto: Максим Подзигун)
    Аудио #3: AC3, 6 ch, 48 kHz, 448 Kbps | Интершум
    Доп. информация: Live - трансляция.

    Общее
    Уникальный идентификатор : 86533815226530274941029847668818157746 (0x4119CE7CFD3FD37AF1B67C22651BA0B2)
    Полное имя : F: SPORTФормула 1(26.05.2018)_FIA Formula 1.R06.Monaco Grand Prix 2018. Qualifying(Full).mkv
    Формат : Matroska
    Версия формата : Version 4/Version 2
    Размер файла : 4, 05 Гбайт
    Продолжительность : 1 ч. 41 м.
    Общий поток : 5686 Кбит/сек
    Дата кодирования : UTC 2018-05-27 07: 46: 20
    Программа кодирования : mkvmerge v23.0.0 (\'The Bride Said No\') 32-bit
    Библиотека кодирования : libebml v1.3.6 + libmatroska v1.4.9
    Видео
    Идентификатор : 1
    Формат : AVC
    Формат/Информация : Advanced Video Codec
    Профиль формата : High@L4.1
    Настройки формата : CABAC/4 Ref Frames
    Параметр CABAC формата : Да
    Параметр RefFrames формата : 4 кадра
    Идентификатор кодека : V_MPEG4/ISO/AVC
    Продолжительность : 1 ч. 41 м.
    Битрейт : 4851 Кбит/сек
    Ширина : 1280 пикселей
    Высота : 720 пикселей
    Соотношение сторон : 16: 9
    Режим частоты кадров : Постоянный
    Частота кадров : 50, 000 кадров/сек
    Цветовое пространство : YUV
    Субдискретизация насыщенности : 4: 2: 0
    Битовая глубина : 8 бит
    Тип развёртки : Прогрессивная
    Бит/(Пиксели*Кадры) : 0.105
    Размер потока : 3, 45 Гбайт (85%)
    Библиотека кодирования : x264 core 148 r2705 3f5ed56
    Настройки программы : cabac=1/ref=3/deblock=1: 0: 0/analyse=0x3: 0x113/me=umh/subme=9/psy=1/psy_rd=1.00: 0.00/mixed_ref=1/me_range=32/chroma_me=1/trellis=1/8x8dct=1/cqm=0/deadzone=21, 11/fast_pskip=1/chroma_qp_offset=-2/threads=18/lookahead_threads=1/sliced_threads=0/nr=0/decimate=1/interlaced=0/bluray_compat=0/constrained_intra=0/bframes=12/b_pyramid=2/b_adapt=1/b_bias=0/direct=1/weightb=1/open_gop=0/weightp=2/keyint=100/keyint_min=10/scenecut=40/intra_refresh=0/rc_lookahead=40/rc=crf/mbtree=1/crf=20.0/qcomp=0.60/qpmin=0/qpmax=69/qpstep=4/vbv_maxrate=20000/vbv_bufsize=25000/crf_max=0.0/nal_hrd=none/filler=0/ip_ratio=1.40/aq=1: 1.00
    Язык : English
    Default : Да
    Forced : Нет
    Аудио #1
    Идентификатор : 2
    Формат : AC-3
    Формат/Информация : Audio Coding 3
    Идентификатор кодека : A_AC3
    Продолжительность : 1 ч. 41 м.
    Вид битрейта : Постоянный
    Битрейт : 192 Кбит/сек
    Каналы : 2 канала
    Расположение каналов : Front: L R
    Частота : 48, 0 КГц
    Частота кадров : 31, 250 кадров/сек (1536 SPF)
    Битовая глубина : 16 бит
    Метод сжатия : С потерями
    Задержка видео : 29 мс.
    Размер потока : 140 Мбайт (3%)
    Заголовок : Match TV
    Язык : Russian
    ServiceKind/String : Complete Main
    Default : Да
    Forced : Нет
    Аудио #2
    Идентификатор : 3
    Формат : AC-3
    Формат/Информация : Audio Coding 3
    Идентификатор кодека : A_AC3
    Продолжительность : 1 ч. 41 м.
    Вид битрейта : Постоянный
    Битрейт : 192 Кбит/сек
    Каналы : 2 канала
    Расположение каналов : Front: L R
    Частота : 48, 0 КГц
    Частота кадров : 31, 250 кадров/сек (1536 SPF)
    Битовая глубина : 16 бит
    Метод сжатия : С потерями
    Задержка видео : 29 мс.
    Размер потока : 140 Мбайт (3%)
    Заголовок : 1 Auto
    Язык : Ukrainian
    ServiceKind/String : Complete Main
    Default : Нет
    Forced : Нет
    Аудио #3
    Идентификатор : 4
    Формат : AC-3
    Формат/Информация : Audio Coding 3
    Идентификатор кодека : A_AC3
    Продолжительность : 1 ч. 41 м.
    Вид битрейта : Постоянный
    Битрейт : 448 Кбит/сек
    Каналы : 6 каналов
    Расположение каналов : Front: L C R, Side: L R, LFE
    Частота : 48, 0 КГц
    Частота кадров : 31, 250 кадров/сек (1536 SPF)
    Битовая глубина : 16 бит
    Метод сжатия : С потерями
    Задержка видео : 29 мс.
    Размер потока : 326 Мбайт (8%)
    Заголовок : Natural Sounds
    Язык : Несколько языков
    ServiceKind/String : Complete Main
    Default : Нет
    Forced : Нет

    Скриншоты для ознакомления



    Все одноименные релизы в Клубе
    Время раздачи: 24/7 (круглосуточно около 1 месяца)


    Формула 1. Сезон 2018. 6-й Этап. Гран-при Монако. Квалификация. Полная версия (26.05.2018) HDTVRip [H.264/720p-LQ] [hand made 50fps]
    Рейтинг →
     (голосов: 1, оценка 3/5, голосовать можно 1 раз )

    Другие торренты по теме:

  • Формула 1 / Formula 1 (Весь сезон 2014) [HDTVRip-AVC 720p 50fps, RUS] скачать через торрент бесплатно
  • Формула 1 / Formula 1 (Весь сезон 2015) [HDTVRip-AVC 720p 50fps, RUS] скачать через торрент бесплатно
  • Формула 1 / Formula 1 (Весь сезон 2012) [HDTVRip-AVC 720p 50fps, RUS] скачать через торрент бесплатно
  • Формула 1. Сезон 2016. Официальные видеоклипы / Race Edits, Race Highlights & Onboard (2016) WEBRip (Обновляемая раздача)
  • Формула 1 / Formula 1 (Весь сезон 2016) HDTVRip [H.264 / 720p] [hand made 50fps]
  • Формула 1. Сезон 2017. Гран-при Китая. 2-й Этап. Свободная практика 2 (07.04.2017) HDTVRip [H.264 / 720p-LQ] [ hand made 50fps]
  • Формула 1. Сезон 2017. Гран-при Китая. 2-й Этап. Свободная практика 1 (07.04.2017) HDTVRip [H.264 / 720p-LQ] [ hand made 50fps]
  • Формула 1. Сезон 2017. Гран-при Китая. 2-й Этап. Свободная практика 3 (08.04.2017) HDTVRip [H.264 / 720p-LQ] [ hand made 50fps]


    • Комментарии (0):

      Информация

      Информация

        Посетители, находящиеся в группе Гости, не могут оставлять комментарии в данной новости.

        ↓ Меню




        ↓ Опрос

        Вы добавили сайт в закладки?
        Да
        Нет


        Top 10 за месяц (Передачи)