.
Авторизация | Регистрация
Хочешь лучшие торренты? Добавь свой email!
Добавить

Торрент скачать бесплатно

  • support: webmaster@btracker.org
» » Футбол. Лига Чемпионов УЕФА 2017-2018. Киев (Украина). Финал. Реал Мадрид (Испания) — Ливерпуль (Англия) (26.05.2018) HDTVRip [H.264 / 720p-LQ] [hand made 50fps] торрент скачать бесплатно


    Футбол. Лига Чемпионов УЕФА 2017-2018. Киев (Украина). Финал. Реал Мадрид (Испания) — Ливерпуль (Англия) (26.05.2018) HDTVRip [H.264 / 720p-LQ] [hand made 50fps] торрент скачать бесплатно

    Опубликовал: Админ | Дата: 28-05-2018, 05:00 | .torrent скачали: 0

    Футбол. Лига Чемпионов УЕФА 2017-2018. Киев (Украина). Финал. Реал Мадрид (Испания) — Ливерпуль (Англия) (26.05.2018) HDTVRip [H.264 / 720p-LQ] [hand made 50fps]Телекомпания: Матч ТВ HD/Матч! Футбол 1 HD
    Жанр: Спорт
    Комментаторы: Константин Генич, Денис Казанский

    Описание
    26 мая 2018 года, суббота. 21: 45 МСК
    Лига Чемпионов УЕФА 2017-2018. Киев (Украина).
    Финал
    Реал Мадрид (Мадрид, Испания) — Ливерпуль (Ливерпуль, Англия)
    Стадион: НСК Олимпийский (Киев, Украина) , вместимость: 70050
    Главный судья: Милорад Мажич (Сербия)
    Ассистенты: Милован Ристич (Сербия), Далибор Джурджевич (Сербия)
    Резервный: Клеман Турпен (Франция)
    Релиз от: CSKAfan
    Продолжительность: 02: 16: 39
    Качество видео: HDTVRip
    Язык озвучки: Русский
    Субтитры: отсутствуют
    Видео: AVC/H.264, 1280x720 (16: 9), ~4258 Kbps, 50 fps
    Аудио: AC3, 2 ch, 48 kHz, 128 Kbps

    Общее
    Уникальный идентификатор : 248680947633190686128221091447522249418 (0xBB16355760D211CBF94DAE203130CACA)
    Полное имя : F: SPORTФутболЛига Чемпионов 2017-2018(26.05.2018)_UEFA ChLeague 17-18.Final. Real M(ESP) - Liverpool(ENG).mkv
    Формат : Matroska
    Версия формата : Version 4/Version 2
    Размер файла : 4, 19 Гбайт
    Продолжительность : 2 ч. 16 м.
    Общий поток : 4389 Кбит/сек
    Дата кодирования : UTC 2018-05-27 06: 47: 41
    Программа кодирования : mkvmerge v23.0.0 (\'The Bride Said No\') 32-bit
    Библиотека кодирования : libebml v1.3.6 + libmatroska v1.4.9
    Видео
    Идентификатор : 1
    Формат : AVC
    Формат/Информация : Advanced Video Codec
    Профиль формата : High@L4
    Настройки формата : CABAC/8 Ref Frames
    Параметр CABAC формата : Да
    Параметр RefFrames формата : 8 кадров
    Параметр GOP формата : M=2, N=24
    Идентификатор кодека : V_MPEG4/ISO/AVC
    Продолжительность : 2 ч. 16 м.
    Битрейт : 4258 Кбит/сек
    Ширина : 1280 пикселей
    Высота : 720 пикселей
    Соотношение сторон : 16: 9
    Режим частоты кадров : Постоянный
    Частота кадров : 50, 000 кадров/сек
    Цветовое пространство : YUV
    Субдискретизация насыщенности : 4: 2: 0
    Битовая глубина : 8 бит
    Тип развёртки : Прогрессивная
    Бит/(Пиксели*Кадры) : 0.092
    Размер потока : 4, 06 Гбайт (97%)
    Default : Да
    Forced : Нет
    Аудио
    Идентификатор : 2
    Формат : AC-3
    Формат/Информация : Audio Coding 3
    Идентификатор кодека : A_AC3
    Продолжительность : 2 ч. 16 м.
    Вид битрейта : Постоянный
    Битрейт : 128 Кбит/сек
    Каналы : 2 канала
    Расположение каналов : Front: L R
    Частота : 48, 0 КГц
    Частота кадров : 31, 250 кадров/сек (1536 SPF)
    Битовая глубина : 16 бит
    Метод сжатия : С потерями
    Размер потока : 125 Мбайт (3%)
    Язык : Russian
    ServiceKind/String : Complete Main
    Default : Да
    Forced : Нет

    Скриншоты для ознакомления



    Все одноименные релизы в Клубе
    Время раздачи: 24/7 (до 1 месяца)


    Футбол. Лига Чемпионов УЕФА 2017-2018. Киев (Украина). Финал. Реал Мадрид (Испания) — Ливерпуль (Англия) (26.05.2018) HDTVRip [H.264/720p-LQ] [hand made 50fps]
    Рейтинг →
     (голосов: 1, оценка 3/5, голосовать можно 1 раз )

    Другие торренты по теме:

  • Футбол. Лига Чемпионов 2014-15 / 1 / 8 финала. Первые матчи. 1-й день. Обзор матчей (2015) HDTVRip 720p скачать через торрент бесплатно
  • Футбол. Лига Чемпионов 2014-15 / 1 / 8 финала. Первый матч. Шальке 04 (Германия) - Реал Мадрид (Испания) ([18.02] (2015)) HDTVRip 720p | 50 fps
  • Футбол. Лига Чемпионов 2015-16. Группа B. 1-й тур Вольфсбург (Германия) - ЦСКА (Россия) (2015) HDTVRip [H.264 / 720p-LQ] скачать через торрент бесплатно
  • Футбол. Лига Чемпионов 2015-16. Группа D. 1-й тур. Манчестер Сити (Англия) - Ювентус (Италия) (2015) HDTVRip [H.264 / 720p-LQ] скачать через торрент бесплатно
  • Футбол. Лига Чемпионов 2015-16. Группа B. 1-й тур. ПСВ Эйндховен (Нидрланды) - Манчестер Юнайтед (Англия) (2015) HDTVRip [H.264 / 720p-LQ] скачать через торрент бесплатно
  • Футбол. Лига Чемпионов 2015-16. Группа A. 1-й тур. Реал Мадрид (Испания) - Шахтёр (Украина) (2015) HDTVRip [H.264 / 720p-LQ] [hand made 50fps] скачать через торрент бесплатно
  • Футбол. Лига Европы 2015-16. Группа B. 1-й тур. Бордо (Франция) - Ливерпуль (Англия) (2015) HDTVRip [H.264 / 720p-LQ] скачать через торрент бесплатно
  • Футбол. Лига Европы 2015-16. Группа H. 1-й тур. Спортинг (Лиссабон, Португалия) – Локомотив (Москва, Россия) (2015) HDTVRip [H.264 / 720p-LQ] скачать через торрент бесплатно


    • Комментарии (0):

      Информация

      Информация

        Посетители, находящиеся в группе Гости, не могут оставлять комментарии в данной новости.

        ↓ Меню




        ↓ Опрос

        Вы добавили сайт в закладки?
        Да
        Нет


        Top 10 за месяц (Передачи)