.
Авторизация | Регистрация
Хочешь лучшие торренты? Добавь свой email!
Добавить

Торрент скачать бесплатно

  • support: webmaster@btracker.org
» » Военная приемка. На границе. часть 1-я (27.05.2018) SATRip торрент скачать бесплатно


    Военная приемка. На границе. часть 1-я (27.05.2018) SATRip торрент скачать бесплатно

    Опубликовал: Админ | Дата: 28-05-2018, 05:00 | .torrent скачали: 3

    Военная приемка. На границе. часть 1-я (27.05.2018) SATRipТелекомпания: ОАО ТРК ВС РФ ЗВЕЗДА
    Жанр: Документальный
    Режиссер: Александр Шильников
    Ведущий : Алексей Егоров

    Описание

    Штурм корабля с вертолета, охота на шпионов, и сложнейший поход к самому северному пограничному столбу России. Главными героями Военной приёмки впервые станут пограничники.В этом году исполняется 100 лет со дня учреждения пограничной охраны. Мы покажем вам, как эти люди охраняют линию, которая в полтора раза длиннее земного экватора. Специально для зрителей нашей программы, самое закрытое ведомство – ФСБ - впервые открывает множество секретов работы пограничников. Съемочная группа программы побывает на самой южной погранзаставе страны –горах Кавказа, на Дальнем Востоке, и в степях на границе с Казахстаном, в Крыму, – на самой молодой границе, - все это вы увидите в ближайших выпусках программы. Но в первую очередь мы покажем вам, как охраняются северные рубежи. Ведущий Военной приемки Алексей Егоров отправится на самую необычную погранзаставу России, расположенную посреди арктических льдов - на Земле Франца-Иосифа. И по пути к ней примет участие в рейдах пограничников на контрабандистов и браконьеров прямо у границ одной из стран НАТО – Норвегии.
    Релиз от: centoriuse
    Продолжительность: 00: 38: 51
    Качество видео: SATRip
    Видео : MPEG4, XviD, 720x400 (16: 9), 25.000 fps, 1 802 Kbps (0.250 bit/pixel)
    Аудио : AC-3, 48.0 KHz, 2 ch, 192 Kbps, CBR

    Общее
    Полное имя : F: видеофильмыВоенная приемкаВоенная приемка (2018.05.27) SATRip.avi
    Формат : AVI
    Формат/Информация : Audio Video Interleave
    Размер файла : 557 Мбайт
    Продолжительность : 38 м. 51 с.
    Общий поток : 2004 Кбит/сек
    Программа кодирования : VirtualDubMod 1.5.10.3 |www.virtualdub-fr.org|| (build 2550/release)
    Библиотека кодирования : VirtualDubMod build 2550/release
    Видео
    Идентификатор : 0
    Формат : MPEG-4 Visual
    Профиль формата : Advanced Simple@L5
    Настройки формата : BVOP1
    Параметр BVOP формата : 1
    Параметр QPel формата : Нет
    Параметр GMC формата : Без точки перехода
    Параметр матрицы формата : Default (H.263)
    Идентификатор кодека : XVID
    Идентификатор кодека/Подсказка : XviD
    Продолжительность : 38 м. 51 с.
    Битрейт : 1802 Кбит/сек
    Ширина : 720 пикселей
    Высота : 400 пикселей
    Соотношение сторон : 16: 9
    Частота кадров : 25, 000 кадров/сек
    Цветовое пространство : YUV
    Субдискретизация насыщенности : 4: 2: 0
    Битовая глубина : 8 бит
    Тип развёртки : Прогрессивная
    Метод сжатия : С потерями
    Бит/(Пиксели*Кадры) : 0.250
    Размер потока : 501 Мбайт (90%)
    Библиотека кодирования : XviD 1.2.1 (UTC 2008-12-04)
    Аудио
    Идентификатор : 1
    Формат : AC-3
    Формат/Информация : Audio Coding 3
    Идентификатор кодека : 2000
    Продолжительность : 38 м. 51 с.
    Вид битрейта : Постоянный
    Битрейт : 192 Кбит/сек
    Каналы : 2 канала
    Расположение каналов : Front: L R
    Частота : 48, 0 КГц
    Частота кадров : 31, 250 кадров/сек (1536 SPF)
    Битовая глубина : 16 бит
    Метод сжатия : С потерями
    Размер потока : 53, 4 Мбайт (10%)
    Выравнивание : Разделение по промежуткам
    Продолжительность промежутка : 40 мс. (1, 00 видеокадр)
    Время предзагрузки промежутка : 500 мс.
    ServiceKind/String : Complete Main

    Скриншоты для ознакомления



    Все одноименные релизы в Клубе
    Время раздачи: 24/7 (до появления первых 3-5 скачавших)


    Военная приемка. На границе. часть 1-я (27.05.2018) SATRip
    Рейтинг →
     (голосов: 1, оценка 5/5, голосовать можно 1 раз )

    Другие торренты по теме:

  • Военная приемка. Армия против санкций (2015) SATRip скачать через торрент бесплатно
  • Военная приемка. Новые русские броневики (2015) SATRip скачать через торрент бесплатно
  • Военная приемка. Ратник. Русские доспехи будущего (2015) SATRip скачать через торрент бесплатно
  • Военная приемка. Раптор. Гоночный катер спецназа (2015) SATRip скачать через торрент бесплатно
  • Военная приемка. Испытательная база комплекса «Патриот» (2015) SATRip скачать через торрент бесплатно
  • Военная приемка. Спасти рядового раненого (2015) SATRip скачать через торрент бесплатно
  • Военная приемка. Ми-28Н. Прирожденный охотник (2015) SATRip скачать через торрент бесплатно
  • Военная приемка. ВДВ. Никто, кроме них (2015) HDTVRip [720p-LQ] скачать через торрент бесплатно


    • Комментарии (0):

      Информация

      Информация

        Посетители, находящиеся в группе Гости, не могут оставлять комментарии в данной новости.

        ↓ Меню




        ↓ Опрос

        Вы добавили сайт в закладки?
        Да
        Нет


        Top 10 за месяц (Передачи)