.
Авторизация | Регистрация
Хочешь лучшие торренты? Добавь свой email!
Добавить

Торрент скачать бесплатно

  • support: webmaster@btracker.org
» » Американская мечта Роберта Кеннеди / Bobby Kennedy. Americas broken Dream (2017) HDTVRip торрент скачать бесплатно


    Американская мечта Роберта Кеннеди / Bobby Kennedy. Americas broken Dream (2017) HDTVRip торрент скачать бесплатно

    Опубликовал: Админ | Дата: 28-05-2018, 05:00 | .torrent скачали: 0

    Американская мечта Роберта Кеннеди / Bobby Kennedy. Americas broken Dream (2017) HDTVRipПроизводство: Франция
    Жанр: Документальный, история, биография
    Режиссер: Патрик Жеди

    Описание

    В июне 1968 года сенатор Бобби Кеннеди баллотировался на пост президента Соединенных Штатов. Народ обожал его, но политический истеблишмент и крупный бизнес считали его угрозой. Он защищал бедных и хотел, чтобы Америка вышла из войны во Вьетнаме: поэтому он имел много врагов, среди них была мафия и ЦРУ.
    Этот рассказ о четырех годах, за которые Роберт Кеннеди успел оставить неизгладимый след в американской политике иллюстрируют редкие архивные кадры.
    Релиз от: alf62
    Продолжительность: 00: 57: 10
    Качество видео: HDTVRip
    Перевод: Документальный дубляж (голос рассказчика - дубляж, интервью - одноголосый закадровый перевод)
    Видео: Xvid, 720x400, ~1900 Kbps
    Аудио: AC3, 2 ch, 192 Kbps

    Общее
    Полное имя : E: ЗаписьАмериканская мечта Роберта КеннедиАмериканская.мечта.Роберта.Кеннеди.2017.XviD.HDTVRip.alf62.avi
    Формат : AVI
    Формат/Информация : Audio Video Interleave
    Размер файла : 859 Мбайт
    Продолжительность : 57 м.
    Общий поток : 2101 Кбит/сек
    Программа кодирования : VirtualDubMod 1.5.10.3 |www.virtualdub-fr.org|| (build 2550/release)
    Библиотека кодирования : VirtualDubMod build 2550/release
    Видео
    Идентификатор : 0
    Формат : MPEG-4 Visual
    Профиль формата : Advanced Simple@L5
    Параметр BVOP формата : 2
    Параметр QPel формата : Нет
    Параметр GMC формата : Без точки перехода
    Параметр матрицы формата : Default (MPEG)
    Идентификатор кодека : XVID
    Идентификатор кодека/Подсказка : XviD
    Продолжительность : 57 м.
    Битрейт : 1900 Кбит/сек
    Ширина : 720 пикселей
    Высота : 400 пикселей
    Соотношение сторон : 16: 9
    Частота кадров : 25, 000 кадров/сек
    Цветовое пространство : YUV
    Субдискретизация насыщенности : 4: 2: 0
    Битовая глубина : 8 бит
    Тип развёртки : Прогрессивная
    Метод сжатия : С потерями
    Бит/(Пиксели*Кадры) : 0.264
    Размер потока : 777 Мбайт (90%)
    Библиотека кодирования : XviD 73
    Аудио
    Идентификатор : 1
    Формат : AC-3
    Формат/Информация : Audio Coding 3
    Расширение режима : CM (complete main)
    Параметр Endianness формата : Big
    Идентификатор кодека : 2000
    Продолжительность : 57 м.
    Вид битрейта : Постоянный
    Битрейт : 192 Кбит/сек
    Каналы : 2 канала
    Расположение каналов : Front: L R
    Частота : 48, 0 КГц
    Битовая глубина : 16 бит
    Метод сжатия : С потерями
    Размер потока : 78, 5 Мбайт (9%)
    Выравнивание : Разделение по промежуткам
    Продолжительность промежутка : 40 мс. (1, 00 видеокадр)
    Время предзагрузки промежутка : 500 мс.

    Скриншоты для ознакомления




    Все одноименные релизы в Клубе
    Время раздачи: до появления первых 3-5 скачавших


    Американская мечта Роберта Кеннеди/Bobby Kennedy. Americas broken Dream (2017) HDTVRip
    Рейтинг →
     (голосов: 1, оценка 3/5, голосовать можно 1 раз )

    Другие торренты по теме:

  • Т. Г. Голенпольский, В. П. Шестаков | «Американская мечта» и американская действительность (1981) [DJVU]
  • Право голоса. Американская мечта (07.09.2015) SATRip скачать через торрент бесплатно
  • Норман Мейлер | Американская мечта (2015) [MP3]
  • Американская мечта Роберта Кеннеди / Bobby Kennedy. Americas broken Dream (2017) HDTVRip [H.264 / 720p-LQ]


    • Комментарии (0):

      Информация

      Информация

        Посетители, находящиеся в группе Гости, не могут оставлять комментарии в данной новости.

        ↓ Меню




        ↓ Опрос

        Вы добавили сайт в закладки?
        Да
        Нет


        Top 10 за месяц (Передачи)