.
Авторизация | Регистрация
Хочешь лучшие торренты? Добавь свой email!
Добавить

Торрент скачать бесплатно

  • support: webmaster@btracker.org
» » Летучие мыши и люди / Des Chauves-souris et des Hommes (2009) HDTVRip [H.264 / 720p-LQ] [PR] торрент скачать бесплатно


    Летучие мыши и люди / Des Chauves-souris et des Hommes (2009) HDTVRip [H.264 / 720p-LQ] [PR] торрент скачать бесплатно

    Опубликовал: Админ | Дата: 28-05-2018, 05:00 | .torrent скачали: 0

    Летучие мыши и люди / Des Chauves-souris et des Hommes (2009) HDTVRip [H.264 / 720p-LQ] [PR]Производство: Франция, France 5
    Жанр: Документальный, познавательный, природа, фауна
    Режиссер: Эми Вебб

    Описание

    Брок Фентон изучает своё любимое животное, летучих мышей. Он биолог, один из ведущих экспертов по летучим мышам. Он хочет научить нас лучше понимать этих существ. Люди боятся животных, которых не знают. Летучие мыши появляются ночью и летают во всех направлениях, в отличие от птиц, и с научной точки зрения они уникальны, они делают удивительные вещи. За 50 лет изучения этих загадочных существ, Фентон узнал, что они умеют то, на что не способны никакие другие млекопитающие. Врачи и ученые начинают интересоваться уникальными способностями этих животных. В многочисленных лабораториях мыши помогают в разработке новых препаратов и лекарств.
    Релиз от: DeTorquemada for HDCLUB
    Продолжительность: 00: 51: 41
    Качество видео: HDTVRip
    Перевод: Одноголосый закадровый, профессиональный (Первый ТВЧ)
    Субтитры: отсутствуют
    Видео: AVC/H.264, 1280х720, ~3750 Kbps
    Аудио: AC3, 2 ch, 448 kbps

    Общее
    Уникальный идентификатор : 237734748086817468743332542890569226283 (0xB2DA0C09408965DCA494E6E8D1B1D82B)
    Полное имя : F: КИНОЛетучие мыши и люди.mkv
    Формат : Matroska
    Версия формата : Version 4/Version 2
    Размер файла : 1, 55 Гбайт
    Продолжительность : 51 м. 41 с.
    Общий поток : 4283 Кбит/сек
    Название фильма : Create by DeTorquemada for HDCLUB
    Дата кодирования : UTC 2015-12-15 18: 27: 52
    Программа кодирования : mkvmerge v8.3.0 (\'Over the Horizon\') 64bit
    Библиотека кодирования : libebml v1.3.1 + libmatroska v1.4.2
    Видео
    Идентификатор : 1
    Формат : AVC
    Формат/Информация : Advanced Video Codec
    Профиль формата : High@L4.1
    Настройки формата : CABAC/7 Ref Frames
    Параметр CABAC формата : Да
    Параметр RefFrames формата : 7 кадров
    Идентификатор кодека : V_MPEG4/ISO/AVC
    Продолжительность : 51 м. 41 с.
    Битрейт : 3749 Кбит/сек
    Ширина : 1280 пикселей
    Высота : 720 пикселей
    Соотношение сторон : 16: 9
    Режим частоты кадров : Постоянный
    Частота кадров : 25, 000 кадров/сек
    Цветовое пространство : YUV
    Субдискретизация насыщенности : 4: 2: 0
    Битовая глубина : 8 бит
    Тип развёртки : Прогрессивная
    Бит/(Пиксели*Кадры) : 0.163
    Размер потока : 1, 35 Гбайт (88%)
    Заголовок : Летучие мыши и люди/Des Chauves-souris et des Hommes (2009)- realise for HDCLUB
    Библиотека кодирования : x264 core 146 r2538 121396c
    Настройки программы : cabac=1/ref=7/deblock=1: -3: -3/analyse=0x3: 0x113/me=umh/subme=10/psy=1/psy_rd=1.00: 0.00/mixed_ref=1/me_range=48/chroma_me=1/trellis=2/8x8dct=1/cqm=0/deadzone=21, 11/fast_pskip=1/chroma_qp_offset=-2/threads=6/lookahead_threads=1/sliced_threads=0/nr=0/decimate=1/interlaced=0/bluray_compat=0/constrained_intra=0/bframes=3/b_pyramid=2/b_adapt=2/b_bias=0/direct=1/weightb=1/open_gop=0/weightp=2/keyint=250/keyint_min=25/scenecut=40/intra_refresh=0/rc_lookahead=65/rc=crf/mbtree=0/crf=18.0/qcomp=0.60/qpmin=0/qpmax=69/qpstep=4/vbv_maxrate=50000/vbv_bufsize=62500/crf_max=0.0/nal_hrd=none/filler=0/ip_ratio=1.40/pb_ratio=1.30/aq=1: 0.80
    Язык : French
    Default : Да
    Forced : Нет
    Цветовой диапазон : Limited
    Коэффициенты матрицы : BT.709
    Аудио
    Идентификатор : 2
    Формат : AC-3
    Формат/Информация : Audio Coding 3
    Идентификатор кодека : A_AC3
    Продолжительность : 51 м. 41 с.
    Вид битрейта : Постоянный
    Битрейт : 448 Кбит/сек
    Каналы : 2 канала
    Расположение каналов : Front: L R
    Частота : 48, 0 КГц
    Частота кадров : 31, 250 кадров/сек (1536 SPF)
    Битовая глубина : 16 бит
    Метод сжатия : С потерями
    Задержка видео : 144 мс.
    Размер потока : 166 Мбайт (10%)
    Заголовок : 48 kHz, AC3, 2.0 (L, R) ch, ~448.00 kbps - Двухголосый закадровый, Первый ТВЧ
    Язык : Russian
    ServiceKind/String : Complete Main
    Default : Да
    Forced : Нет

    Скриншоты для ознакомления



    Все одноименные релизы в Клубе
    Время раздачи: с 18: 00 до 23: 00 (до появления первых 3-5 скачавших)


    Летучие мыши и люди/Des Chauves-souris et des Hommes (2009) HDTVRip [H.264/720p-LQ] [PR]
    Рейтинг →
     (голосов: 1, оценка 3/5, голосовать можно 1 раз )

    Другие торренты по теме:

  • Летучие мыши / Bats (1999) HDTVRip скачать через торрент бесплатно
  • Летучие мыши / Bats (1999) HDTVRip
  • Летучие мыши / Bats (1999) HDTVRip
  • NGW: Удивительные летучие мыши / Incredible Bats (2016) HDTVRip [H.264 / 720p-LQ]
  • NGW: Гигантские плотоядные летучие мыши / Giant Carnivorous Bats (2017) HDTVRip [H.264 / 1080p-LQ]


    • Комментарии (0):

      Информация

      Информация

        Посетители, находящиеся в группе Гости, не могут оставлять комментарии в данной новости.

        ↓ Меню




        ↓ Опрос

        Вы добавили сайт в закладки?
        Да
        Нет


        Top 10 за месяц (Передачи)