.
Авторизация | Регистрация
Хочешь лучшие торренты? Добавь свой email!
Добавить

Торрент скачать бесплатно

  • support: webmaster@btracker.org
» » NG: Ловушка для динозавров (Западня для динозавров) / Dino Deathtrap (2007) HDTV [H.264 / 1080i-LQ] торрент скачать бесплатно


    NG: Ловушка для динозавров (Западня для динозавров) / Dino Deathtrap (2007) HDTV [H.264 / 1080i-LQ] торрент скачать бесплатно

    Опубликовал: Админ | Дата: 28-05-2018, 05:00 | .torrent скачали: 1

    NG: Ловушка для динозавров (Западня для динозавров) / Dino Deathtrap (2007) HDTV [H.264 / 1080i-LQ]Производство: США, National Geographic Television
    Жанр: Документальный, исследование, раскопки, палеонтология
    Режиссер: Дженни Кубо
    Участники: Мэтью Каррано, Джеймс М. Кларк, Дэвид Эберт

    Описание

    Некоторые ученые называют это место ямой смерти. Другие Помпеей динозавров. Сотни и сотни скелетов уложены друг на друга. Всего порядком более 40 новых видов, вымерших 160 миллионов лет тому назад. Присоединяйтесь к Национальному географическому обществу в увлекательное путешествие в Китай, в изолированное место, где было обнародовано одно из самых больших доисторических захоронений динозавров, ранее неизвестных ученым. Примкните к группе палеонтологов, во главе с Доктором Джимом Кларком, из Университета Джорджа Вашингтона, и Доктором Ксу Ксинг, из Китайской академии наук, и наблюдайте как, при помощи последних компьютерных технологий, восстанавливают картину того, что могло бы случиться с этими животными и почему эти могущественные гиганты так быстро исчезли? Вымер ли их вид сам по себе, или с ними случилось что-то более страшное?

    Продолжительность: 00: 47: 24
    Качество видео: HDTV
    Перевод: Одноголосый закадровый, профессиональный
    Субтитры: отсутствуют
    Видео: AVC/H.264, 1920x1080, ~5320 Kbps
    Аудио: MP2, 2 ch, 192 Kbps

    Общее
    Идентификатор : 1 (0x1)
    Полное имя : F: КИНОDino.Deathtrap.HDTV.1080i.H264.Mpeg.audio.ts
    Формат : MPEG-TS
    Размер файла : 1, 92 Гбайт
    Продолжительность : 47 м. 23 с.
    Режим общего битрейта : Переменный
    Общий поток : 5800 Кбит/сек
    Видео
    Идентификатор : 4113 (0x1011)
    Идентификатор меню : 1 (0x1)
    Формат : AVC
    Формат/Информация : Advanced Video Codec
    Профиль формата : Main@L4
    Настройки формата : CABAC/4 Ref Frames
    Параметр CABAC формата : Да
    Параметр RefFrames формата : 4 кадра
    Идентификатор кодека : 27
    Продолжительность : 47 м. 23 с.
    Вид битрейта : Переменный
    Битрейт : 5319 Кбит/сек
    Максимальный битрейт : 40, 0 Мбит/сек
    Ширина : 1920 пикселей
    Высота : 1080 пикселей
    Соотношение сторон : 16: 9
    Частота кадров : 25, 000 кадров/сек
    Стандарт вещания : Component
    Цветовое пространство : YUV
    Субдискретизация насыщенности : 4: 2: 0
    Битовая глубина : 8 бит
    Тип развёртки : Чересстрочная
    Метод сохранения типа развёртки : Раздельные поля
    Порядок развёртки : Верхнее поле первое
    Бит/(Пиксели*Кадры) : 0.103
    Размер потока : 1, 76 Гбайт (92%)
    Цветовой диапазон : Limited
    Основные цвета : BT.709
    Характеристики трансфера : BT.709
    Коэффициенты матрицы : BT.709
    Аудио
    Идентификатор : 4352 (0x1100)
    Идентификатор меню : 1 (0x1)
    Формат : MPEG Audio
    Версия формата : Version 1
    Профиль формата : Layer 2
    Идентификатор кодека : 4
    Продолжительность : 47 м. 23 с.
    Вид битрейта : Постоянный
    Битрейт : 192 Кбит/сек
    Каналы : 2 канала
    Частота : 48, 0 КГц
    Частота кадров : 41, 667 кадра/сек (1152 SPF)
    Метод сжатия : С потерями
    Задержка видео : -222 мс.
    Размер потока : 65, 1 Мбайт (3%)
    Язык : Russian

    Скриншоты для ознакомления



    Все одноименные релизы в Клубе
    Время раздачи: с 18: 00 до 23: 00 (до появления первых 3-5 скачавших)


    NG: Ловушка для динозавров (Западня для динозавров)/Dino Deathtrap (2007) HDTV [H.264/1080i-LQ]
    Рейтинг →
     (голосов: 1, оценка 5/5, голосовать можно 1 раз )

    Другие торренты по теме:

  • Без обмана. Медовая ловушка (2014.09.30) SATRip
  • Ловушка для кошек / Macskafogó / Cat City (1986) DVD5
  • Ловушка для Золушки / Trap for Cinderella (2013) HDRip
  • Ловушка для Золушки / Trap for Cinderella (2013) BDRip [1080p]
  • Земля. Территория загадок. Бермудская ловушка (2014) SATRip
  • Ловушка Юрского периода / Jurassic City (2014) DVDRip [VO]
  • Осторожно, мошенники! Ловушка для безработного (2015.06.16) SATRip скачать через торрент бесплатно
  • Ловушка / The Badger Game (2014) WEB-DLRip скачать через торрент бесплатно


    • Комментарии (0):

      Информация

      Информация

        Посетители, находящиеся в группе Гости, не могут оставлять комментарии в данной новости.

        ↓ Меню




        ↓ Опрос

        Вы добавили сайт в закладки?
        Да
        Нет


        Top 10 за месяц (Передачи)