.
Авторизация | Регистрация
Хочешь лучшие торренты? Добавь свой email!
Добавить

Торрент скачать бесплатно

  • support: webmaster@btracker.org
» » Уральские пельмени. Унесенные феном! (2018.05.25) SATRip торрент скачать бесплатно


    Уральские пельмени. Унесенные феном! (2018.05.25) SATRip торрент скачать бесплатно

    Опубликовал: Админ | Дата: 27-05-2018, 05:00 | .torrent скачали: 0

    Уральские пельмени. Унесенные феном! (2018.05.25) SATRipТелекомпания: СТС
    Жанр: Юмор

    Описание

    Кто хозяин в доме пока нет хозяйки? Сколько этажей у воздушного замка? Есть ли логика в женской логике? Когда новая шуба превращается в старую? Где лучше всего ожидать принца на белом коне? На эти вопросы ответят вам на Шоу Уральских пельменей Унесенные феном!
    Участники: Дмитрий Брекоткин, Сергей Ершов, Сергей Исаев, Сергей Калугин, Вячеслав Мясников, Сергей Нетиевский, Александр Попов, Андрей Рожков, Дмитрий Соколов, Максим Ярица, Юля Михалкова

    Возраст: 12+ (зрителям, достигшим 12 лет)
    Продолжительность: 01: 08: 53
    Качество видео: SATRip
    Видео: XviD, 720x384, 1504 kbps
    Аудио: 48 kHz, AC3, 2 ch, ~128 kbps
    Код: выделить все
    Общее
    Полное имя : D:Уральские пельмени. Унесенные феном! (2018.05.25) SATRip.avi
    Формат : AVI
    Формат/Информация : Audio Video Interleave
    Размер файла : 809 Мбайт
    Продолжительность : 1 ч. 8 м.
    Общий поток : 1641 Кбит/сек
    Программа кодирования : VirtualDubMod 1.5.10.3 (build 2550/release)
    Библиотека кодирования : VirtualDub build 35576/release
    Видео
    Идентификатор : 0
    Формат : MPEG-4 Visual
    Профиль формата : Advanced Simple@L5
    Настройки формата : BVOP2
    Параметр BVOP формата : 2
    Параметр QPel формата : Нет
    Параметр GMC формата : Без точки перехода
    Параметр матрицы формата : Default (H.263)
    Идентификатор кодека : XVID
    Идентификатор кодека/Подсказка : XviD
    Продолжительность : 1 ч. 8 м.
    Битрейт : 1504 Кбит/сек
    Ширина : 720 пикселей
    Высота : 384 пикселя
    Соотношение сторон : 1, 85:1
    Частота кадров : 25, 000 кадров/сек
    Цветовое пространство : YUV
    Субдискретизация насыщенности : 4:2:0
    Битовая глубина : 8 бит
    Тип развёртки : Прогрессивная
    Метод сжатия : С потерями
    Бит/(Пиксели*Кадры) : 0.218
    Размер потока : 741 Мбайт (92%)
    Библиотека кодирования : XviD 1.2.1 (UTC 2008-12-04)
    Аудио
    Идентификатор : 1
    Формат : AC-3
    Формат/Информация : Audio Coding 3
    Идентификатор кодека : 2000
    Продолжительность : 1 ч. 8 м.
    Вид битрейта : Постоянный
    Битрейт : 128 Кбит/сек
    Каналы : 2 канала
    Расположение каналов : Front: L R
    Частота : 48, 0 КГц
    Частота кадров : 31, 250 кадров/сек (1536 SPF)
    Битовая глубина : 16 бит
    Метод сжатия : С потерями
    Размер потока : 63, 1 Мбайт (8%)
    Выравнивание : Разделение по промежуткам
    Продолжительность промежутка : 40 мс. (1, 00 видеокадр)
    Время предзагрузки промежутка : 500 мс.
    ServiceKind/String : Complete Main

    Скриншоты для ознакомления


    Все одноименные релизы в Клубе
    Время раздачи: 24/7 (до появления первых 3-5 скачавших)


    Уральские пельмени. Унесенные феном! (2018.05.25) SATRip
    Рейтинг →
     (голосов: 1, оценка 3/5, голосовать можно 1 раз )

    Другие торренты по теме:

  • Уральские пельмени (2003-2014.12.12) SATRip [Обновляемая] скачать через торрент бесплатно
  • Уральские пельмени. Виза есть - ума не надо (2014.12.12) WEB-DL [H.264 / 1080p-LQ] скачать через торрент бесплатно
  • Уральские пельмени. Виза есть - ума не надо (2014.12.12) WEB-DLRip [H.264 / 720p]
  • Уральские пельмени. Волшебники страны ОЙ! (2014.12.19) WEB-DLRip [H.264 / 720p-LQ]
  • Уральские пельмени. Волшебники страны ОЙ! (2014.12.19) SATRip
  • Уральские пельмени. Музыка нас слизала (2014.12.26) WEBRip [H.264 / 720p] скачать через торрент бесплатно
  • Уральские пельмени. Музыка нас слизала (2014.12.26) SATRip скачать через торрент бесплатно
  • Уральские пельмени. Волшебники страны ОЙ! (2014.12.19) WEB-DLRip [H.264 / 1080p-LQ] скачать через торрент бесплатно


    • Комментарии (0):

      Информация

      Информация

        Посетители, находящиеся в группе Гости, не могут оставлять комментарии в данной новости.

        ↓ Меню




        ↓ Опрос

        Вы добавили сайт в закладки?
        Да
        Нет


        Top 10 за месяц (Передачи)