.
Авторизация | Регистрация
Хочешь лучшие торренты? Добавь свой email!
Добавить

Торрент скачать бесплатно

  • support: webmaster@btracker.org
» » Камеди Клаб / Комеди Клаб / Comedy Club (2018.05.25) SATRip торрент скачать бесплатно


    Камеди Клаб / Комеди Клаб / Comedy Club (2018.05.25) SATRip торрент скачать бесплатно

    Опубликовал: Админ | Дата: 27-05-2018, 05:00 | .torrent скачали: 0

    Камеди Клаб / Комеди Клаб / Comedy Club (2018.05.25) SATRipТелекомпания: ТНТ
    Жанр: Юмор

    Актеры
    Гарик Мартиросян, Вадим Галыгин, Павел Воля, Тимур Батрутдинов, Александр Ревва, Гавр, Олег Верещагин, Дмитрий Сорокин, Зураб Матуa, Андрей Аверин, Алексей Лихницкий, Роман Юнусов, Антон Лирник, Андрей Молочный, Александр Незлобин, Дмитрий Хрусталёв, Васильев Виктор, Сергей Бессмертный, Игорь Меерсон, Семён Слепаков, Михаил Галустян и др.

    Описание

    Comedy Club был создан в 2005 году командой КВН Новые армяне, в состав которой входили Артур Джанибекян, Артак Гаспарян, Артур Тумасян, Арташес Саркисян, Гарик Мартиросян и другие. Его идея была задумана ещё в 2001 году, когда Арташес Саркисян, побывав в США, увидел местный Comedy Club. Временами стали появляться новые участники Comedy Club, в основном из КВН. 23 апреля 2005 года Comedy Club впервые вышел в эфир телеканала ТНТ. Рейтинги программы стали бить все рекорды и это приносило программе большие доходы, на которые они стали делать другие проекты. Впоследствии они создали свою продюсерскую компанию Comedy Club Production. 15 апреля 2007 года на ТНТ был показан сотый выпуск программы. Регулярно выходят новые выпуски и другие проекты - например спецвыпуски на Первом канале, юмористические фестивали и продюсирование участниками Comedy Club проекты других телепередач. 23 апреля 2010 года Comedy Club вышло с новой музыкой и обновлённым оформлением. Также Comedy Club выходит на каналах ICTV, НТВ+ - Мир и Comedy TV.
    Как всегда, Comedy Club собрал все самое смешное, чтобы оставаться самым крутым юмористическим шоу на телевидении. Камеры готовы? Музыканты готовы? Зрители готовы? Поехали!
    Продолжительность: ~00: 45: 00
    Качество видео: SATRip
    Субтитры: Отсутствуют
    Видео: Xvid, 720x400 (16: 9), ~1650 Kbps
    Аудио: MP3, 2 ch, 192 Kbps

    Общее
    Полное имя : D: Comedy Club (2018.05.25).avi
    Формат : AVI
    Формат/Информация : Audio Video Interleave
    Размер файла : 591 Мбайт
    Продолжительность : 44 м. 37 с.
    Общий поток : 1852 Кбит/сек
    Программа кодирования : VirtualDubMod 1.5.10.3 (build 2550/release)
    Библиотека кодирования : VirtualDubMod build 2550/release
    Видео
    Идентификатор : 0
    Формат : MPEG-4 Visual
    Профиль формата : Advanced Simple@L5
    Настройки формата : BVOP1/Custom Matrix
    Параметр BVOP формата : 1
    Параметр QPel формата : Нет
    Параметр GMC формата : Без точки перехода
    Параметр матрицы формата : Выборочная
    Идентификатор кодека : XVID
    Идентификатор кодека/Подсказка : XviD
    Продолжительность : 44 м. 37 с.
    Битрейт : 1650 Кбит/сек
    Ширина : 720 пикселей
    Высота : 400 пикселей
    Соотношение сторон : 16: 9
    Частота кадров : 25, 000 кадров/сек
    Цветовое пространство : YUV
    Субдискретизация насыщенности : 4: 2: 0
    Битовая глубина : 8 бит
    Тип развёртки : Прогрессивная
    Метод сжатия : С потерями
    Бит/(Пиксели*Кадры) : 0.229
    Размер потока : 527 Мбайт (89%)
    Библиотека кодирования : XviD 1.2.1 (UTC 2008-12-04)
    Аудио
    Идентификатор : 1
    Формат : MPEG Audio
    Версия формата : Version 1
    Профиль формата : Layer 3
    Настройки формата : Joint stereo/MS Stereo
    Идентификатор кодека : 55
    Идентификатор кодека/Подсказка : MP3
    Продолжительность : 44 м. 37 с.
    Вид битрейта : Постоянный
    Битрейт : 192 Кбит/сек
    Каналы : 2 канала
    Частота : 48, 0 КГц
    Частота кадров : 41, 667 кадра/сек (1152 SPF)
    Метод сжатия : С потерями
    Размер потока : 61, 3 Мбайт (10%)
    Выравнивание : Соединение по промежуткам
    Продолжительность промежутка : 40 мс. (1, 00 видеокадр)
    Время предзагрузки промежутка : 504 мс.
    Библиотека кодирования : LAME3.99r
    Настройки программы : -m j -V 4 -q 2 -lowpass 18.6 -b 192

    Скриншоты для ознакомления



    Все одноименные релизы в Клубе
    Время раздачи: 24/7 (круглосуточно) (до появления первых 3-5 скачавших)


    Камеди Клаб/Комеди Клаб/Comedy Club (2018.05.25) SATRip
    Рейтинг →
     (голосов: 1, оценка 4/5, голосовать можно 1 раз )

    Другие торренты по теме:

  • Новый Камеди Клаб в Юрмале / Комеди Клаб / Comedy Club / Выпуск №15 (26.09.2014) WEB-DLRip
  • Камеди Клаб / Комеди Клаб / Comedy Club / Exclusive №45 (27.09.2014) WEB-DL [H.264 / 720p] [hand made 50fps]
  • Новый Камеди Клаб в Юрмале / Комеди Клаб / Comedy Cub. Выпуски 10-15 + Открытие фестиваля в Юрмале и интервью резидентов (2014.09.26) WEB-DL [H.264 / 720p-LQ] [Обновляемая]
  • Новый Камеди Клаб в Юрмале / Комеди Клаб / Comedy Club / Выпуски №10-15 (26.09.2014) SATRip [Обновляемая]
  • Камеди Клаб / Комеди Клаб / Comedy Club (10.10.2014) SATRip скачать через торрент бесплатно
  • Камеди Клаб / Комеди Клаб / Comedy Club / Спецвыпуск Лепс (10.10.2014) WEB-DL [H.264 / 720p] [hand made 50fps] скачать через торрент бесплатно
  • Камеди Клаб / Комеди Клаб / Comedy Club / Спецвыпуск Лепс (10.10.2014) WEBRip скачать через торрент бесплатно
  • Камеди Клаб / Комеди Клаб / Comedy Club / Exclusive №47 (11.10.2014) WEBRip скачать через торрент бесплатно


    • Комментарии (0):

      Информация

      Информация

        Посетители, находящиеся в группе Гости, не могут оставлять комментарии в данной новости.

        ↓ Меню




        ↓ Опрос

        Вы добавили сайт в закладки?
        Да
        Нет


        Top 10 за месяц (Передачи)