.
Авторизация | Регистрация
Хочешь лучшие торренты? Добавь свой email!
Добавить

Торрент скачать бесплатно

  • support: webmaster@btracker.org
» » Comedy Баттл. Новый сезон / Комеди Клаб / Comedy Club (2018.05.25) SATRip (выпуск 17) торрент скачать бесплатно


    Comedy Баттл. Новый сезон / Комеди Клаб / Comedy Club (2018.05.25) SATRip (выпуск 17) торрент скачать бесплатно

    Опубликовал: Админ | Дата: 27-05-2018, 05:00 | .torrent скачали: 2

    Comedy Баттл. Новый сезон / Комеди Клаб / Comedy Club (2018.05.25) SATRip (выпуск 17)Телекомпания: ТНТ
    Жанр: Юмор
    Ведущий: Павел Воля

    Описание

    В новом сезон любимого сериалае создатели решили столкнуть лбами представителей двух жанров: стендапа и миниатюры. Победитель сезон любимого сериалаа получит 5 миллионов рублей. В последнее время на ТНТ приходили в основном стендап-комики. И когда, казалось бы, стендап навсегда вытеснил жанр миниатюры, на ТНТ снова возвращается Comedy Баттл, с тем, чтобы доказать обратное.
    Продолжительность: 00: 49: 24
    Качество видео: SATRip
    Субтитры: Отсутствуют
    Видео: Xvid, 720x400 (16: 9), ~1800 Kbps
    Аудио: MP3, 2 ch, 128 Kbps

    Общее
    Полное имя : G: Comedy.Battl.New.Season.(17..avi
    Формат : AVI
    Формат/Информация : Audio Video Interleave
    Размер файла : 685 Мбайт
    Продолжительность : 49 м. 24 с.
    Общий поток : 1938 Кбит/сек
    Программа кодирования : VirtualDubMod 1.5.10.3 |www.virtualdub-fr.org|| (build 2550/release)
    Библиотека кодирования : VirtualDubMod build 2550/release
    Видео
    Идентификатор : 0
    Формат : MPEG-4 Visual
    Профиль формата : Advanced Simple@L5
    Настройки формата : BVOP2
    Параметр BVOP формата : 2
    Параметр QPel формата : Нет
    Параметр GMC формата : Без точки перехода
    Параметр матрицы формата : Default (H.263)
    Идентификатор кодека : XVID
    Идентификатор кодека/Подсказка : XviD
    Продолжительность : 49 м. 24 с.
    Битрейт : 1800 Кбит/сек
    Ширина : 720 пикселей
    Высота : 400 пикселей
    Соотношение сторон : 16: 9
    Частота кадров : 25, 000 кадров/сек
    Цветовое пространство : YUV
    Субдискретизация насыщенности : 4: 2: 0
    Битовая глубина : 8 бит
    Тип развёртки : Прогрессивная
    Метод сжатия : С потерями
    Бит/(Пиксели*Кадры) : 0.250
    Размер потока : 636 Мбайт (93%)
    Библиотека кодирования : XviD 1.2.1 (UTC 2008-12-04)
    Аудио
    Идентификатор : 1
    Формат : MPEG Audio
    Версия формата : Version 1
    Профиль формата : Layer 3
    Настройки формата : Joint stereo/MS Stereo
    Идентификатор кодека : 55
    Идентификатор кодека/Подсказка : MP3
    Продолжительность : 49 м. 24 с.
    Вид битрейта : Постоянный
    Битрейт : 128 Кбит/сек
    Каналы : 2 канала
    Частота : 48, 0 КГц
    Частота кадров : 41, 667 кадра/сек (1152 SPF)
    Метод сжатия : С потерями
    Размер потока : 45, 2 Мбайт (7%)
    Выравнивание : Соединение по промежуткам
    Продолжительность промежутка : 40 мс. (1, 00 видеокадр)
    Время предзагрузки промежутка : 504 мс.
    Библиотека кодирования : LAME3.99r
    Настройки программы : -m j -V 4 -q 9 -lowpass 17 -b 128

    Скриншоты для ознакомления



    Все одноименные релизы в Клубе
    Время раздачи: 24/7 (круглосуточно) (до появления первых 3-5 скачавших)


    Comedy Баттл. Новый сезон/Комеди Клаб/Comedy Club (2018.05.25) SATRip (выпуск 17)
    Рейтинг →
     (голосов: 1, оценка 4/5, голосовать можно 1 раз )

    Другие торренты по теме:

  • Comedy Баттл. Суперсезон. Этап 2. Выпуск №4 / Комеди Клаб / Comedy Club (2014.09.26) WEB-DL [H.264 / 720p] [hand made 50fps]
  • Comedy Баттл. Суперсезон. Этап 2. Выпуск №4 / Комеди Клаб / Comedy Club (2014.09.26) SATRip
  • Comedy Баттл. Суперсезон. Этап 2. Выпуск №4 / Комеди Клаб / Comedy Club (2014.09.26) WEBRip
  • Comedy Баттл. Суперсезон. Выпуск №27 / Комеди Клаб / Comedy Club (2014.10.10) WEB-DLRip [H.264 / 720p-LQ] скачать через торрент бесплатно
  • Comedy Баттл. Суперсезон. Выпуск №27 / Комеди Клаб / Comedy Club (2014.10.10) SATRip скачать через торрент бесплатно
  • Comedy Баттл. Суперсезон. Выпуск №27 / Комеди Клаб / Comedy Club (2014.10.10) WEB-DL [H.264 / 720p] [hand made 50fps] скачать через торрент бесплатно
  • Comedy Баттл. Суперсезон. Выпуск №27 / Комеди Клаб / Comedy Club (2014.10.10) WEBRip скачать через торрент бесплатно
  • Comedy Баттл. Суперсезон. Выпуск №28 / Комеди Клаб / Comedy Club (2014.10.17) WEB-DL [H.264 / 720p] [hand made 50fps] скачать через торрент бесплатно


    • Комментарии (0):

      Информация

      Информация

        Посетители, находящиеся в группе Гости, не могут оставлять комментарии в данной новости.

        ↓ Меню




        ↓ Опрос

        Вы добавили сайт в закладки?
        Да
        Нет


        Top 10 за месяц (Передачи)