.
Авторизация | Регистрация
Хочешь лучшие торренты? Добавь свой email!
Добавить

Торрент скачать бесплатно

  • support: webmaster@btracker.org
» » Уральские пельмени. Унесенные феном! (2018.05.25) WEB-DL [H.264 / 1080p-LQ] торрент скачать бесплатно


    Уральские пельмени. Унесенные феном! (2018.05.25) WEB-DL [H.264 / 1080p-LQ] торрент скачать бесплатно

    Опубликовал: Админ | Дата: 27-05-2018, 05:00 | .torrent скачали: 2

    Уральские пельмени. Унесенные феном! (2018.05.25) WEB-DL [H.264 / 1080p-LQ]Телекомпания: СТС
    Жанр: Юмор
    Участники: Дмитрий Брекоткин, Сергей Ершов, Сергей Исаев, Сергей Калугин, Вячеслав Мясников, Александр Попов, Андрей Рожков, Дмитрий Соколов, Максим Ярица, Юля Михалкова

    Описание

    Кто хозяин в доме пока нет хозяйки? Сколько этажей у воздушного замка? Есть ли логика в женской логике? Когда новая шуба превращается в старую? Где лучше всего ожидать принца на белом коне? На эти вопросы ответят вам на Шоу Уральских пельменей Унесенные феном!

    Возраст: 12+ (зрителям, достигшим 12 лет)
    Релиз от: Алехаndr
    Продолжительность: 01: 12: 24
    Качество видео: WEB-DL
    Субтитры: Отсутствуют
    Видео: AVC/H.264, 1920x1080 (16: 9), ~4150 Kbps
    Аудио: AC3, 2 ch, 192 Kbps

    Общее
    Уникальный идентификатор : 121494627545566192876094498781006480862 (0x5B67039DD76364875FDBE4EE61C945DE)
    Полное имя : D: Унесенные феном - Уральские пельмени (2018).by.Алехаndr.mkv
    Формат : Matroska
    Версия формата : Version 4/Version 2
    Размер файла : 2, 24 Гбайт
    Продолжительность : 1 ч. 12 м.
    Общий поток : 4432 Кбит/сек
    Программа кодирования : Lavf57.71.100
    Библиотека кодирования : Lavf57.71.100
    ErrorDetectionType : Per level 1
    Видео
    Идентификатор : 1
    Формат : AVC
    Формат/Информация : Advanced Video Codec
    Профиль формата : High@L4
    Настройки формата : CABAC/2 Ref Frames
    Параметр CABAC формата : Да
    Параметр RefFrames формата : 2 кадра
    Идентификатор кодека : V_MPEG4/ISO/AVC
    Продолжительность : 1 ч. 12 м.
    Битрейт : 4152 Кбит/сек
    Ширина : 1920 пикселей
    Высота : 1080 пикселей
    Соотношение сторон : 16: 9
    Режим частоты кадров : Постоянный
    Частота кадров : 25, 000 кадров/сек
    Цветовое пространство : YUV
    Субдискретизация насыщенности : 4: 2: 0
    Битовая глубина : 8 бит
    Тип развёртки : Прогрессивная
    Бит/(Пиксели*Кадры) : 0.080
    Размер потока : 2, 10 Гбайт (94%)
    Default : Да
    Forced : Нет
    Цветовой диапазон : Limited
    Основные цвета : BT.709
    Характеристики трансфера : BT.709
    Коэффициенты матрицы : BT.709
    Аудио
    Идентификатор : 2
    Формат : AC-3
    Формат/Информация : Audio Coding 3
    Идентификатор кодека : A_AC3
    Продолжительность : 1 ч. 12 м.
    Вид битрейта : Постоянный
    Битрейт : 192 Кбит/сек
    Каналы : 2 канала
    Расположение каналов : Front: L R
    Частота : 48, 0 КГц
    Частота кадров : 31, 250 кадров/сек (1536 SPF)
    Битовая глубина : 16 бит
    Метод сжатия : С потерями
    Размер потока : 99, 4 Мбайт (4%)
    ServiceKind/String : Complete Main
    Default : Да
    Forced : Нет

    Скриншоты для ознакомления



    Все одноименные релизы в Клубе
    Время раздачи: 24/7 (круглосуточно) (до появления первых 3-5 скачавших)


    Уральские пельмени. Унесенные феном! (2018.05.25) WEB-DL [H.264/1080p-LQ]
    Рейтинг →
     (голосов: 1, оценка 4/5, голосовать можно 1 раз )

    Другие торренты по теме:

  • Уральские пельмени (2003-2014.12.12) SATRip [Обновляемая] скачать через торрент бесплатно
  • Уральские пельмени. Виза есть - ума не надо (2014.12.12) WEB-DL [H.264 / 1080p-LQ] скачать через торрент бесплатно
  • Уральские пельмени. Виза есть - ума не надо (2014.12.12) WEB-DLRip [H.264 / 720p]
  • Уральские пельмени. Волшебники страны ОЙ! (2014.12.19) WEB-DLRip [H.264 / 720p-LQ]
  • Уральские пельмени. Волшебники страны ОЙ! (2014.12.19) SATRip
  • Уральские пельмени. Музыка нас слизала (2014.12.26) WEBRip [H.264 / 720p] скачать через торрент бесплатно
  • Уральские пельмени. Музыка нас слизала (2014.12.26) SATRip скачать через торрент бесплатно
  • Уральские пельмени. Волшебники страны ОЙ! (2014.12.19) WEB-DLRip [H.264 / 1080p-LQ] скачать через торрент бесплатно


    • Комментарии (0):

      Информация

      Информация

        Посетители, находящиеся в группе Гости, не могут оставлять комментарии в данной новости.

        ↓ Меню




        ↓ Опрос

        Вы добавили сайт в закладки?
        Да
        Нет


        Top 10 за месяц (Передачи)