.
Авторизация | Регистрация
Хочешь лучшие торренты? Добавь свой email!
Добавить

Торрент скачать бесплатно

  • support: webmaster@btracker.org
» » Формула 1. Сезон 2018. 6-й Этап. Гран-при Монако. Свободная практика 1 (24.05.2018) IPTVRip [H.264 / 1080p-LQ] торрент скачать бесплатно


    Формула 1. Сезон 2018. 6-й Этап. Гран-при Монако. Свободная практика 1 (24.05.2018) IPTVRip [H.264 / 1080p-LQ] торрент скачать бесплатно

    Опубликовал: Админ | Дата: 27-05-2018, 05:00 | .torrent скачали: 1

    Формула 1. Сезон 2018. 6-й Этап. Гран-при Монако. Свободная практика 1 (24.05.2018) IPTVRip [H.264 / 1080p-LQ]Телекомпания: Матч ТВ HD
    Жанр: Спорт
    Комментаторы: Алексей Попов, Наталья Фабричнова, Владимир Башмаков

    Описание
    24 мая 2018 года, четверг. 12: 00 МСК
    6-й Этап сезон любимого сериалаа 2018 года. Гран-при Монако. Монте-Карло (Монако).
    Свободная практика 1
    Арена: Городская трасса Монте-Карло (Монте-Карло, Монако)
    Продолжительность: 01: 20: 10
    Качество видео: IPTVRip
    Язык озвучки: Русский
    Субтитры: отсутствуют
    Видео: AVC/H.264, 1920x1080 (16: 9), ~4500 Kbps
    Аудио: AAC, 2 ch, 48 kHz, 192 Kbps

    Общее
    Уникальный идентификатор : 300384048079989576057287198199763222888 (0xE1FBDD01513BE4E754A4D6F17748C168)
    Полное имя : F: SPORTФормула 1(24.05.2018)_FIA Formula 1.R06.Monaco Grand Prix 2018. 1Practice.mkv
    Формат : Matroska
    Версия формата : Version 4/Version 2
    Размер файла : 2, 63 Гбайт
    Продолжительность : 1 ч. 20 м.
    Режим общего битрейта : Переменный
    Общий поток : 4690 Кбит/сек
    Дата кодирования : UTC 2018-05-25 07: 46: 23
    Программа кодирования : mkvmerge v23.0.0 (\'The Bride Said No\') 32-bit
    Библиотека кодирования : libebml v1.3.6 + libmatroska v1.4.9
    Видео
    Идентификатор : 1
    Формат : AVC
    Формат/Информация : Advanced Video Codec
    Профиль формата : High@L4.1
    Настройки формата : CABAC/3 Ref Frames
    Параметр CABAC формата : Да
    Параметр RefFrames формата : 3 кадра
    Идентификатор кодека : V_MPEG4/ISO/AVC
    Продолжительность : 1 ч. 20 м.
    Вид битрейта : Переменный
    Битрейт : 4500 Кбит/сек
    Ширина : 1920 пикселей
    Высота : 1080 пикселей
    Соотношение сторон : 16: 9
    Режим частоты кадров : Постоянный
    Частота кадров : 25, 000 кадров/сек
    Стандарт вещания : PAL
    Цветовое пространство : YUV
    Субдискретизация насыщенности : 4: 2: 0
    Битовая глубина : 8 бит
    Тип развёртки : Прогрессивная
    Бит/(Пиксели*Кадры) : 0.087
    Размер потока : 2, 52 Гбайт (96%)
    Default : Да
    Forced : Нет
    Цветовой диапазон : Limited
    Основные цвета : BT.709
    Характеристики трансфера : BT.709
    Коэффициенты матрицы : BT.709
    Аудио
    Идентификатор : 2
    Формат : AAC
    Формат/Информация : Advanced Audio Codec
    Профиль формата : LC
    Идентификатор кодека : A_AAC-2
    Продолжительность : 1 ч. 20 м.
    Битрейт : 192 Кбит/сек
    Каналы : 2 канала
    Расположение каналов : Front: L R
    Частота : 48, 0 КГц
    Частота кадров : 46, 875 кадров/сек (1024 SPF)
    Метод сжатия : С потерями
    Размер потока : 109 Мбайт (4%)
    Язык : Russian
    Default : Да
    Forced : Нет

    Скриншоты для ознакомления



    Все одноименные релизы в Клубе
    Время раздачи: 24/7 (круглосуточно около 1 месяца)


    Формула 1. Сезон 2018. 6-й Этап. Гран-при Монако. Свободная практика 1 (24.05.2018) IPTVRip [H.264/1080p-LQ]
    Рейтинг →
     (голосов: 1, оценка 4/5, голосовать можно 1 раз )

    Другие торренты по теме:

  • Формула 1 / Formula 1 (Весь сезон 2014) [HDTVRip-AVC 720p 50fps, RUS] скачать через торрент бесплатно
  • Формула 1 / Formula 1 (Весь сезон 2015) [HDTVRip-AVC 720p 50fps, RUS] скачать через торрент бесплатно
  • Формула 1 / Formula 1 (Весь сезон 2012) [HDTVRip-AVC 720p 50fps, RUS] скачать через торрент бесплатно
  • Формула 1. Сезон 2016. Официальные видеоклипы / Race Edits, Race Highlights & Onboard (2016) WEBRip (Обновляемая раздача)
  • Формула 1 / Formula 1 (Весь сезон 2016) HDTVRip [H.264 / 720p] [hand made 50fps]
  • Формула 1. Сезон 2017. Гран-при Китая. 2-й Этап. Свободная практика 2 (07.04.2017) HDTVRip [H.264 / 720p-LQ] [ hand made 50fps]
  • Формула 1. Сезон 2017. Гран-при Китая. 2-й Этап. Свободная практика 1 (07.04.2017) HDTVRip [H.264 / 720p-LQ] [ hand made 50fps]
  • Формула 1. Сезон 2017. Гран-при Китая. 2-й Этап. Свободная практика 3 (08.04.2017) HDTVRip [H.264 / 720p-LQ] [ hand made 50fps]


    • Комментарии (0):

      Информация

      Информация

        Посетители, находящиеся в группе Гости, не могут оставлять комментарии в данной новости.

        ↓ Меню




        ↓ Опрос

        Вы добавили сайт в закладки?
        Да
        Нет


        Top 10 за месяц (Передачи)