.
Авторизация | Регистрация
Хочешь лучшие торренты? Добавь свой email!
Добавить

Торрент скачать бесплатно

  • support: webmaster@btracker.org
» » Баскетбол. Лига чемпионов ФИБА 2017-2018. Финал 4-х. Афины (Греция). 1 / 2 финала. Людвигсбург (Германия) — Монако (Монако) (2018) WEB [H.264 / 720p-LQ] [EN] торрент скачать бесплатно


    Баскетбол. Лига чемпионов ФИБА 2017-2018. Финал 4-х. Афины (Греция). 1 / 2 финала. Людвигсбург (Германия) — Монако (Монако) (2018) WEB [H.264 / 720p-LQ] [EN] торрент скачать бесплатно

    Опубликовал: Админ | Дата: 27-05-2018, 05:00 | .torrent скачали: 0

    Баскетбол. Лига чемпионов ФИБА 2017-2018. Финал 4-х. Афины (Греция). 1 / 2 финала. Людвигсбург (Германия) — Монако (Монако) (2018) WEB [H.264 / 720p-LQ] [EN]Жанр: Спорт

    Описание
    04 мая 2018 года, пятница. 18: 30 МСК
    Баскетбол. Лига чемпионов ФИБА 2017-2018. Финал четырёх. Афины (Греция)
    1/2 финала.
    Людвигсбург (Людвигсбург, Германия) — Монако (Монако, Монако)
    Стадион: O.A.K.A.- Олимпик Индур Холл (Афины, Греция) , вместимость: 19250
    Судьи: Александар Глисич (Сербия), Томас Ясевичюс (Литва), Мануэль Маццони (Италия)
    Продолжительность: 01: 50: 25
    Качество видео: WEB
    Язык озвучки: Английский
    Субтитры: отсутствуют
    Видео: AVC/H.264, 1280x720 (16: 9), ~1457 Kbps
    Аудио: AAC, 2 ch, 44, 1 kHz, 128 Kbps

    Общее
    Уникальный идентификатор : 279179727086806698056575349472614352635 (0xD2080F43AA33DB6222D8C1623D0306FB)
    Полное имя : F: SPORTБаскетболBasketball Champions League FIBA 17-18(04.05.2018)_BChL FIBA 17-18.F-4.SF1. MHP Riesen Ludwigsburg(GER)–AS Monaco(MCO).mkv
    Формат : Matroska
    Версия формата : Version 4/Version 2
    Размер файла : 1, 22 Гбайт
    Продолжительность : 1 ч. 50 м.
    Общий поток : 1584 Кбит/сек
    Дата кодирования : UTC 2018-05-25 19: 56: 51
    Программа кодирования : mkvmerge v23.0.0 (\'The Bride Said No\') 32-bit
    Библиотека кодирования : libebml v1.3.6 + libmatroska v1.4.9
    Видео
    Идентификатор : 1
    Формат : AVC
    Формат/Информация : Advanced Video Codec
    Профиль формата : Main@L3.1
    Настройки формата : CABAC/3 Ref Frames
    Параметр CABAC формата : Да
    Параметр RefFrames формата : 3 кадра
    Идентификатор кодека : V_MPEG4/ISO/AVC
    Продолжительность : 1 ч. 50 м.
    Битрейт : 1457 Кбит/сек
    Ширина : 1280 пикселей
    Высота : 720 пикселей
    Соотношение сторон : 16: 9
    Режим частоты кадров : Постоянный
    Частота кадров : 25, 000 кадров/сек
    Цветовое пространство : YUV
    Субдискретизация насыщенности : 4: 2: 0
    Битовая глубина : 8 бит
    Тип развёртки : Прогрессивная
    Бит/(Пиксели*Кадры) : 0.063
    Размер потока : 1, 12 Гбайт (92%)
    Default : Да
    Forced : Нет
    Цветовой диапазон : Limited
    Основные цвета : BT.709
    Характеристики трансфера : BT.709
    Коэффициенты матрицы : BT.709
    Аудио
    Идентификатор : 2
    Формат : AAC
    Формат/Информация : Advanced Audio Codec
    Профиль формата : LC
    Идентификатор кодека : A_AAC-2
    Продолжительность : 1 ч. 50 м.
    Битрейт : 126 Кбит/сек
    Каналы : 2 канала
    Расположение каналов : Front: L R
    Частота : 44, 1 КГц
    Частота кадров : 43, 066 кадра/сек (1024 SPF)
    Метод сжатия : С потерями
    Размер потока : 99, 2 Мбайт (8%)
    Язык : English
    Default : Да
    Forced : Нет

    Скриншоты для ознакомления



    Все одноименные релизы в Клубе
    Время раздачи: 24/7 (около 1 месяца)


    Баскетбол. Лига чемпионов ФИБА 2017-2018. Финал 4-х. Афины (Греция). 1/2 финала. Людвигсбург (Германия) — Монако (Монако) (2018) WEB [H.264/720p-LQ] [EN]
    Рейтинг →
     (голосов: 1, оценка 5/5, голосовать можно 1 раз )

    Другие торренты по теме:

  • Баскетбол. Лига чемпионов ФИБА 2016-2017. Группа B. 1-й тур. Химик (Украина) - Автодор (Россия) (19.10.2016) SATRip [H.264]
  • Баскетбол. Лига чемпионов ФИБА 2016-2017. Группа B. 2-й тур. Автодор (Россия) — Катая (Финляндия) (26.10.2016) HDTVRip [H.264 / 720p-LQ][hand made 50fps]
  • Баскетбол. Лига чемпионов ФИБА 2016-2017. Группа H. 2-й тур. Енисей (Россия) — Демир Иншаа (Турция) (25.10.2016) WEB-DL [H.264 / 720p-LQ][INT]
  • Баскетбол. Лига чемпионов ФИБА 2017-2018. Группа C. 1-й тур. Умана Рейер (Италия) – Банвит (Турция) (10.10.2017) WEB-DL [H.264 / 720p-LQ] [EN]
  • Баскетбол. Лига чемпионов ФИБА 2017-2018. Группа B. 1-й тур. Нептунас (Литва) – Элан Шалон (Франция) (10.10.2017) WEB-DL [H.264 / 720p-LQ] [EN]
  • Баскетбол. Лига чемпионов ФИБА 2017-2018. Группа A. 1-й тур. AC Монако (Монако) – Ювентус (Литва) (10.10.2017) WEB-DL [H.264 / 720p-LQ] [EN]
  • Баскетбол. Лига чемпионов ФИБА 2017-2018. Группа A. 1-й тур. Ольденбург (Германия) – Енисей (Россия) (11.10.2017) WEB-DL [H.264 / 720p-LQ] [EN]
  • Баскетбол. Лига чемпионов ФИБА 2017-2018. Группа A. 1-й тур. Ольденбург (Германия) – Енисей (Россия) (11.10.2017) WEB-DLRip


    • Комментарии (0):

      Информация

      Информация

        Посетители, находящиеся в группе Гости, не могут оставлять комментарии в данной новости.

        ↓ Меню




        ↓ Опрос

        Вы добавили сайт в закладки?
        Да
        Нет


        Top 10 за месяц (Передачи)