.
Авторизация | Регистрация
Хочешь лучшие торренты? Добавь свой email!
Добавить

Торрент скачать бесплатно

  • support: webmaster@btracker.org
» » Формула 1. Сезон 2018. 6-й Этап. Гран-при Монако. Свободная практика 3 (26.05.2018) IPTVRip [H.264 / 1080p-LQ] торрент скачать бесплатно


    Формула 1. Сезон 2018. 6-й Этап. Гран-при Монако. Свободная практика 3 (26.05.2018) IPTVRip [H.264 / 1080p-LQ] торрент скачать бесплатно

    Опубликовал: Админ | Дата: 27-05-2018, 05:00 | .torrent скачали: 1

    Формула 1. Сезон 2018. 6-й Этап. Гран-при Монако. Свободная практика 3 (26.05.2018) IPTVRip [H.264 / 1080p-LQ]Телекомпания: Матч! Арена HD
    Жанр: Спорт
    Комментаторы: Алексей Попов, Наталья Фабричнова, Владимир Башмаков

    Описание
    26 мая 2018 года, суббота. 13: 00 МСК
    6-й Этап сезон любимого сериалаа 2018 года. Гран-при Монако. Монте-Карло (Монако).
    Свободная практика 3
    Арена: Городская трасса Монте-Карло (Монте-Карло, Монако)
    Релиз от: hereisit
    Продолжительность: 01: 08: 04
    Качество видео: IPTVRip
    Язык озвучки: Русский
    Субтитры: отсутствуют
    Видео: AVC/H.264, 1920x1080 (16: 9), ~4056 Kbps
    Аудио: AAC, 2 ch, 48 kHz, 192 Kbps

    Общее
    Уникальный идентификатор : 227523349780957006949214382776557071133 (0xAB2B673AAC88CAC4978F2D7B95196B1D)
    Полное имя : F: SPORTФормула 1(26.05.2018)_FIA Formula 1.R06.Monaco Grand Prix 2018. 3Practice.mkv
    Формат : Matroska
    Версия формата : Version 4/Version 2
    Размер файла : 2, 02 Гбайт
    Продолжительность : 1 ч. 8 м.
    Режим общего битрейта : Переменный
    Общий поток : 4247 Кбит/сек
    Дата кодирования : UTC 2018-05-26 18: 40: 11
    Программа кодирования : mkvmerge v23.0.0 (\'The Bride Said No\') 32-bit
    Библиотека кодирования : libebml v1.3.6 + libmatroska v1.4.9
    Видео
    Идентификатор : 1
    Формат : AVC
    Формат/Информация : Advanced Video Codec
    Профиль формата : High@L4.1
    Настройки формата : CABAC/4 Ref Frames
    Параметр CABAC формата : Да
    Параметр RefFrames формата : 4 кадра
    Идентификатор кодека : V_MPEG4/ISO/AVC
    Продолжительность : 1 ч. 8 м.
    Вид битрейта : Переменный
    Битрейт : 4056 Кбит/сек
    Максимальный битрейт : 4500 Кбит/сек
    Ширина : 1920 пикселей
    Высота : 1080 пикселей
    Соотношение сторон : 16: 9
    Режим частоты кадров : Постоянный
    Частота кадров : 25, 000 кадров/сек
    Стандарт вещания : PAL
    Цветовое пространство : YUV
    Субдискретизация насыщенности : 4: 2: 0
    Битовая глубина : 8 бит
    Тип развёртки : Прогрессивная
    Бит/(Пиксели*Кадры) : 0.078
    Размер потока : 1, 93 Гбайт (95%)
    Default : Да
    Forced : Нет
    Цветовой диапазон : Limited
    Основные цвета : BT.709
    Характеристики трансфера : BT.709
    Коэффициенты матрицы : BT.709
    Аудио
    Идентификатор : 2
    Формат : AAC
    Формат/Информация : Advanced Audio Codec
    Профиль формата : LC
    Идентификатор кодека : A_AAC-2
    Продолжительность : 1 ч. 8 м.
    Битрейт : 192 Кбит/сек
    Каналы : 2 канала
    Расположение каналов : Front: L R
    Частота : 48, 0 КГц
    Частота кадров : 46, 875 кадров/сек (1024 SPF)
    Метод сжатия : С потерями
    Размер потока : 92, 2 Мбайт (4%)
    Язык : Russian
    Default : Да
    Forced : Нет

    Скриншоты для ознакомления



    Все одноименные релизы в Клубе
    Время раздачи: 24/7 (круглосуточно около 1 месяца)


    Формула 1. Сезон 2018. 6-й Этап. Гран-при Монако. Свободная практика 3 (26.05.2018) IPTVRip [H.264/1080p-LQ]
    Рейтинг →
     (голосов: 1, оценка 4/5, голосовать можно 1 раз )

    Другие торренты по теме:

  • Формула 1 / Formula 1 (Весь сезон 2014) [HDTVRip-AVC 720p 50fps, RUS] скачать через торрент бесплатно
  • Формула 1 / Formula 1 (Весь сезон 2015) [HDTVRip-AVC 720p 50fps, RUS] скачать через торрент бесплатно
  • Формула 1 / Formula 1 (Весь сезон 2012) [HDTVRip-AVC 720p 50fps, RUS] скачать через торрент бесплатно
  • Формула 1. Сезон 2016. Официальные видеоклипы / Race Edits, Race Highlights & Onboard (2016) WEBRip (Обновляемая раздача)
  • Формула 1 / Formula 1 (Весь сезон 2016) HDTVRip [H.264 / 720p] [hand made 50fps]
  • Формула 1. Сезон 2017. Гран-при Китая. 2-й Этап. Свободная практика 2 (07.04.2017) HDTVRip [H.264 / 720p-LQ] [ hand made 50fps]
  • Формула 1. Сезон 2017. Гран-при Китая. 2-й Этап. Свободная практика 1 (07.04.2017) HDTVRip [H.264 / 720p-LQ] [ hand made 50fps]
  • Формула 1. Сезон 2017. Гран-при Китая. 2-й Этап. Свободная практика 3 (08.04.2017) HDTVRip [H.264 / 720p-LQ] [ hand made 50fps]


    • Комментарии (0):

      Информация

      Информация

        Посетители, находящиеся в группе Гости, не могут оставлять комментарии в данной новости.

        ↓ Меню




        ↓ Опрос

        Вы добавили сайт в закладки?
        Да
        Нет


        Top 10 за месяц (Передачи)