.
Авторизация | Регистрация
Хочешь лучшие торренты? Добавь свой email!
Добавить

Торрент скачать бесплатно

  • support: webmaster@btracker.org
» » «Еловая Субмарина» - Звуки МУ (2006) (2014) DVD5 [Custom] торрент скачать бесплатно


    «Еловая Субмарина» - Звуки МУ (2006) (2014) DVD5 [Custom] торрент скачать бесплатно

    Опубликовал: Админ | Дата: 27-05-2018, 05:00 | .torrent скачали: 0

    «Еловая Субмарина» - Звуки МУ (2006) (2014) DVD5 [Custom]Телекомпания: ООО Вериселинтел телеканал Ностальгия
    Жанр: Документальный
    Участники: Петр Мамонов, Александр Липницкий, Алексей Бортничук, Павел Хотин, Александр Александров и др.

    Описание

    История одной из самых замечательных групп отечественного рок-авангарда Звуки МУ
    Уникальная видеохроника, анализ музыки, воспоминания друзей, кадры из фильмов и спектаклей с участием Петра Мамонова — все это в двух частях передачи, вышедшей в 2006 году на канале Ностальгия. История рассказана бас-гитаристом группы Александром Липницким.
    В 2014г к 30-летию группы фильм был выпущен на ДВД-9 ограниченным тиражом 500экз.
    Продолжительность: 00: 59: 23 + 01: 08: 06
    Качество видео: DVD5
    Субтитры: отсутствуют
    Видео: MPEG2 PAL, 720x576, ~4340 Kbps
    Аудио: AC3 2.0, 384 Kbps

    Title: Звуки Му - Еловая Субмарина 2006
    Size: 4.36 Gb ( 4 575 916, 00 KBytes ) - DVD-5
    Enabled regions: 1, 2, 3, 4, 5, 6, 7, 8
    VTS_01 :
    Play Length: 00: 59: 23
    Video: PAL 4: 3 (720x576) VBR
    Audio:
    Russian (Dolby AC3, 2 ch)
    VTS_02 :
    Play Length: 01: 08: 06
    Video: PAL 4: 3 (720x576) VBR
    Audio:
    Russian (Dolby AC3, 2 ch)

    Общее
    Полное имя : F: DownloadsЗвуки Му - Еловая Субмарина 2006VIDEO_TSVTS_01_1.VOB
    Формат : MPEG-PS
    Размер файла : 1024 Мбайт
    Продолжительность : 29 м. 40 с.
    Режим общего битрейта : Постоянный
    Общий поток : 4824 Кбит/сек
    Видео
    Идентификатор : 224 (0xE0)
    Формат : MPEG Video
    Версия формата : Version 2
    Профиль формата : Main@Main
    Настройки формата : CustomMatrix/BVOP
    Параметр BVOP формата : Да
    Параметр матрицы формата : Выборочная
    Параметр GOP формата : M=3, N=12
    Структура изображения : Frame
    Продолжительность : 29 м. 40 с.
    Вид битрейта : Постоянный
    Битрейт : 4344 Кбит/сек
    Максимальный битрейт : 8000 Кбит/сек
    Ширина : 720 пикселей
    Высота : 576 пикселей
    Соотношение сторон : 4: 3
    Частота кадров : 25, 000 кадров/сек
    Стандарт вещания : PAL
    Цветовое пространство : YUV
    Субдискретизация насыщенности : 4: 2: 0
    Битовая глубина : 8 бит
    Тип развёртки : Чересстрочная
    Порядок развёртки : Нижнее поле первое
    Метод сжатия : С потерями
    Бит/(Пиксели*Кадры) : 0.419
    Временной код первого кадра : 00: 00: 00: 00
    Оригинал временного кода : Group of pictures t_head
    GOP, открыто/закрыто : Закрыто
    Размер потока : 922 Мбайт (90%)
    Аудио
    Идентификатор : 189 (0xBD)-128 (0x80)
    Формат : AC-3
    Формат/Информация : Audio Coding 3
    Режим смешивания : DVD-Video
    Продолжительность : 29 м. 40 с.
    Вид битрейта : Постоянный
    Битрейт : 384 Кбит/сек
    Каналы : 2 канала
    Расположение каналов : Front: L R
    Частота : 48, 0 КГц
    Частота кадров : 31, 250 кадров/сек (1536 SPF)
    Битовая глубина : 16 бит
    Метод сжатия : С потерями
    Размер потока : 81, 5 Мбайт (8%)
    ServiceKind/String : Complete Main


    «Еловая Субмарина» - Звуки МУ (2006) (2014) DVD5 [Custom]
    Рейтинг →
     (голосов: 1, оценка 4/5, голосовать можно 1 раз )

    Другие торренты по теме:

  • «Еловая Субмарина» - Аквариум (2007) DVD5 [hand-made]
  • «Еловая Субмарина» - Виктор Цой. Дети минут (2008) DVD5 [hand-made]
  • «Еловая Субмарина» - Майк из группы Зоопарк (2006) DVD5 [hand-made]


    • Комментарии (0):

      Информация

      Информация

        Посетители, находящиеся в группе Гости, не могут оставлять комментарии в данной новости.

        ↓ Меню




        ↓ Опрос

        Вы добавили сайт в закладки?
        Да
        Нет


        Top 10 за месяц (Передачи)