.
Авторизация | Регистрация
Хочешь лучшие торренты? Добавь свой email!
Добавить

Торрент скачать бесплатно

  • support: webmaster@btracker.org
» » Битлз: Восемь дней в неделю / The Beatles: Eight Days a Week - The Touring Years (2016) DVB [H.264 / 1080i-LQ] [MVO] торрент скачать бесплатно


    Битлз: Восемь дней в неделю / The Beatles: Eight Days a Week - The Touring Years (2016) DVB [H.264 / 1080i-LQ] [MVO] торрент скачать бесплатно

    Опубликовал: Админ | Дата: 27-05-2018, 05:00 | .torrent скачали: 7

    Битлз: Восемь дней в неделю / The Beatles: Eight Days a Week - The Touring Years (2016) DVB [H.264 / 1080i-LQ] [MVO]Телекомпания: США/Apple Corps, Universal Music Group International, Diamond Docs
    Жанр: Документальный, Искусство, Биография
    Участники: Пол МакКартни, Ринго Старр, Джон Леннон, Джордж Харрисон, Ричард Кёртис, Ларри Кэйн, Вупи Голдберг, Frank Phillips, Элвис Костелло

    Описание

    Собрание архивных видеоматериалов с музыкой, интервью и рассказами о 250 концертах The Beatles с 1963 по 1966 год. The Beatles появились на популярной сцене в шестидесятых. Расцвет их популярности был неожиданным и очень бурным. Это был результат упорного труда в годы становления группы, когда они постоянно давали концерты в Ливерпуле и в Гамбурге, когда приобретал профессиональные навыки их менеджер Брайан Эпстайн. В этом фильме вы увидите новые интервью с ныне живущими участниками группы, архивные интервью с теми, кто уже ушел из жизни, а также с их близкими и поклонниками. Здесь будут видеозаписи 1963-66 годов, когда группа активно давала концерты и превращалась во всемирно известное культурное явление, затмившее всех своей популярностью. Также вы увидите, как Великолепная четверка менялась и росла, в то время как из-за битломании их жизнь становилась невыносимой; как они пытались вырваться из порочного круга, чтобы стать еще больше и превзойти ожидания поклонников.

    Продолжительность: 01: 40: 37
    Качество видео: DVB 1080i
    Перевод: Многоголосый закадровый, профессиональный (Первый канал)
    Субтитры: Русские, телетекст
    Видео: AVC/H.264, 1920x1080, ~7169 Kbps
    Аудио #1: MP2, 48 kHz, 2 ch, 224 kbps | Русский
    Аудио #2: АС-3, 48 kHz, 6 ch, 384 kbps | Русский

    Общее
    Идентификатор : 16 (0x10)
    Полное имя : The Beatles_Eight Days a Week_The Touring Years_HD.ts
    Формат : MPEG-TS
    Размер файла : 5, 76 Гбайт
    Продолжительность : 1 ч. 40 м.
    Режим общего битрейта : Переменный
    Общий поток : 8188 Кбит/сек
    Видео
    Идентификатор : 1902 (0x76E)
    Идентификатор меню : 92 (0x5C)
    Формат : AVC
    Формат/Информация : Advanced Video Codec
    Профиль формата : High@L4
    Настройки формата : CABAC/3 Ref Frames
    Параметр CABAC формата : Да
    Параметр RefFrames формата : 3 кадра
    Идентификатор кодека : 27
    Продолжительность : 1 ч. 40 м.
    Битрейт : 7169 Кбит/сек
    Ширина : 1920 пикселей
    Высота : 1080 пикселей
    Соотношение сторон : 16: 9
    Частота кадров : 25, 000 кадров/сек
    Стандарт вещания : PAL
    Цветовое пространство : YUV
    Субдискретизация насыщенности : 4: 2: 0
    Битовая глубина : 8 бит
    Тип развёртки : Чересстрочная
    Метод сохранения типа развёртки : Раздельные поля
    Порядок развёртки : Верхнее поле первое
    Бит/(Пиксели*Кадры) : 0.138
    Размер потока : 5, 04 Гбайт (88%)
    Цветовой диапазон : Limited
    Основные цвета : BT.709
    Характеристики трансфера : BT.709
    Коэффициенты матрицы : BT.709
    Аудио #1
    Идентификатор : 2902 (0xB56)
    Идентификатор меню : 92 (0x5C)
    Формат : MPEG Audio
    Версия формата : Version 1
    Профиль формата : Layer 2
    Идентификатор кодека : 4
    Продолжительность : 1 ч. 40 м.
    Вид битрейта : Постоянный
    Битрейт : 224 Кбит/сек
    Каналы : 2 канала
    Частота : 48, 0 КГц
    Метод сжатия : С потерями
    Задержка видео : 12 мс.
    Размер потока : 161 Мбайт (3%)
    Язык : std
    Язык, дополнительно : Clean effects
    Аудио #2
    Идентификатор : 3902 (0xF3E)
    Идентификатор меню : 92 (0x5C)
    Формат : AC-3
    Формат/Информация : Audio Coding 3
    Параметр Endianness формата : Big
    Идентификатор кодека : 6
    Продолжительность : 1 ч. 40 м.
    Вид битрейта : Постоянный
    Битрейт : 384 Кбит/сек
    Каналы : 6 каналов
    Расположение каналов : Front: L C R, Side: L R, LFE
    Частота : 48, 0 КГц
    Частота кадров : 31, 250 кадров/сек (1536 SPF)
    Битовая глубина : 16 бит
    Метод сжатия : С потерями
    Задержка видео : 2 мс.
    Размер потока : 276 Мбайт (5%)
    Язык : std
    Язык, дополнительно : Clean effects
    ServiceKind/String : Complete Main
    Прочее #1
    Идентификатор : 33 (0x21)-100
    Идентификатор меню : 92 (0x5C)
    Формат : Teletext
    Прочее #2
    Идентификатор : 33 (0x21)-888
    Идентификатор меню : 92 (0x5C)
    Формат : Teletext
    Язык, дополнительно : Additional information page

    Скриншоты для ознакомления



    Все одноименные релизы в Клубе
    Время раздачи: Сб-Вс с 09: 00 до 23: 30 (до появления первых 3-5 скачавших)


    Битлз: Восемь дней в неделю/The Beatles: Eight Days a Week - The Touring Years (2016) DVB [H.264/1080i-LQ] [MVO]
    Рейтинг →
     (голосов: 1, оценка 4/5, голосовать можно 1 раз )

    Другие торренты по теме:

  • Битлз: Восемь дней в неделю / The Beatles: Eight Days a Week - The Touring Years (2016) BDRip [H.264 / 1080p] [EN]
  • Битлз: Восемь дней в неделю / The Beatles: Eight Days a Week - The Touring Years (2016) Blu-ray [H.264 / 1080p] [EN / En, Fr, De Sub]
  • Битлз: восемь дней в неделе – гастрольные годы / The Beatles - Eight Days a Week - The Touring Years (2016) BDRip [H.264 / 720p] [EN / RU Sub]


    • Комментарии (0):

      Информация

      Информация

        Посетители, находящиеся в группе Гости, не могут оставлять комментарии в данной новости.

        ↓ Меню




        ↓ Опрос

        Вы добавили сайт в закладки?
        Да
        Нет


        Top 10 за месяц (Передачи)