.
Авторизация | Регистрация
Хочешь лучшие торренты? Добавь свой email!
Добавить

Торрент скачать бесплатно

  • support: webmaster@btracker.org
» » BBC: Арктика. Как живут за Полярным кругом / Operation Arctic (2016) HDTVRip [H.264 / 1080p-LQ] (Серии 1-2 из 2) [PR] торрент скачать бесплатно


    BBC: Арктика. Как живут за Полярным кругом / Operation Arctic (2016) HDTVRip [H.264 / 1080p-LQ] (Серии 1-2 из 2) [PR] торрент скачать бесплатно

    Опубликовал: Админ | Дата: 27-05-2018, 05:00 | .torrent скачали: 0

    BBC: Арктика. Как живут за Полярным кругом / Operation Arctic (2016) HDTVRip [H.264 / 1080p-LQ] (Серии 1-2 из 2) [PR]Производство: Великобритания, BBC
    Жанр: Документальный
    Режиссер: Саймон Рив
    Участники: Саймон Рив

    Описание

    Восемь стран делят территорию внутри Северного полярного круга. Это место вокруг полюса называют Арктикой. Обычно её часть всегда покрыта льдом. Здесь холодно и идёт снег. Здесь ходят белые медведи и атомные ледоколы. Здесь живут и трудятся сотни тысяч человек. Группа ученых отправляется в путешествие по северным странам, чтобы встретиться с этими людьми и больше узнать об их жизни.
    Продолжительность: 2х ~00: 52: 00
    Качество видео: HDTVRip
    Перевод: Одноголосый закадровый, профессиональный
    Видео: AVC/H.264, 1920x1080, ~3000 Kbps
    Аудио: AAC, 2 ch, 132 Kbps

    Общее
    Уникальный идентификатор : 53208225852916316048732809138302633904 (0x280788136273296693A7463FFCF047B0)
    Полное имя : F: КИНОАрктика. Как живут за Полярным кругомАрктика. Как живут за Полярным кругом (1серия).mkv
    Формат : Matroska
    Версия формата : Version 4/Version 2
    Размер файла : 1, 12 Гбайт
    Продолжительность : 51 м. 4 с.
    Общий поток : 3132 Кбит/сек
    Дата кодирования : UTC 2018-05-24 18: 54: 30
    Программа кодирования : mkvmerge v23.0.0 (\'The Bride Said No\') 64-bit
    Библиотека кодирования : libebml v1.3.6 + libmatroska v1.4.9
    Видео
    Идентификатор : 1
    Формат : AVC
    Формат/Информация : Advanced Video Codec
    Профиль формата : High@L4
    Настройки формата : CABAC/3 Ref Frames
    Параметр CABAC формата : Да
    Параметр RefFrames формата : 3 кадра
    Идентификатор кодека : V_MPEG4/ISO/AVC
    Продолжительность : 51 м. 4 с.
    Битрейт : 3000 Кбит/сек
    Ширина : 1920 пикселей
    Высота : 1080 пикселей
    Соотношение сторон : 16: 9
    Режим частоты кадров : Постоянный
    Частота кадров : 25, 000 кадров/сек
    Цветовое пространство : YUV
    Субдискретизация насыщенности : 4: 2: 0
    Битовая глубина : 8 бит
    Тип развёртки : Прогрессивная
    Бит/(Пиксели*Кадры) : 0.058
    Размер потока : 1, 07 Гбайт (96%)
    Библиотека кодирования : x264 core 148
    Настройки программы : cabac=1/ref=3/deblock=1: 0: 0/analyse=0x3: 0x113/me=hex/subme=7/psy=1/psy_rd=1.00: 0.00/mixed_ref=1/me_range=16/chroma_me=0/trellis=1/8x8dct=1/cqm=0/deadzone=21, 11/fast_pskip=1/chroma_qp_offset=-2/threads=34/lookahead_threads=5/sliced_threads=0/nr=0/decimate=1/interlaced=0/bluray_compat=0/constrained_intra=0/bframes=3/b_pyramid=1/b_adapt=1/b_bias=0/direct=1/weightb=1/open_gop=0/weightp=2/keyint=250/keyint_min=25/scenecut=40/intra_refresh=0/rc_lookahead=40/rc=2pass/mbtree=1/bitrate=3000/ratetol=1.0/qcomp=0.60/qpmin=0/qpmax=69/qpstep=4/cplxblur=20.0/qblur=0.5/ip_ratio=1.41/aq=1: 1.00
    Default : Да
    Forced : Нет
    Аудио
    Идентификатор : 2
    Формат : AAC
    Формат/Информация : Advanced Audio Codec
    Профиль формата : LC
    Идентификатор кодека : A_AAC-2
    Продолжительность : 51 м. 4 с.
    Битрейт : 132 Кбит/сек
    Каналы : 2 канала
    Расположение каналов : Front: L R
    Частота : 44, 1 КГц
    Частота кадров : 43, 066 кадра/сек (1024 SPF)
    Метод сжатия : С потерями
    Задержка видео : -4 мс.
    Размер потока : 47, 9 Мбайт (4%)
    Язык : Russian
    Default : Да
    Forced : Нет
    Общее
    Уникальный идентификатор : 280919783249433937213732191515308582662 (0xD3572EA823628703485B240EA059E706)
    Полное имя : F: КИНОАрктика. Как живут за Полярным кругомАрктика. Как живут за Полярным кругом (2 серия).mkv
    Формат : Matroska
    Версия формата : Version 4/Version 2
    Размер файла : 1, 09 Гбайт
    Продолжительность : 52 м. 38 с.
    Общий поток : 2956 Кбит/сек
    Дата кодирования : UTC 2018-05-24 18: 55: 27
    Программа кодирования : mkvmerge v23.0.0 (\'The Bride Said No\') 64-bit
    Библиотека кодирования : libebml v1.3.6 + libmatroska v1.4.9
    Видео
    Идентификатор : 1
    Формат : AVC
    Формат/Информация : Advanced Video Codec
    Профиль формата : High@L4
    Настройки формата : CABAC/1 Ref Frames
    Параметр CABAC формата : Да
    Параметр RefFrames формата : 1 кадр
    Параметр GOP формата : M=1, N=25
    Идентификатор кодека : V_MPEG4/ISO/AVC
    Продолжительность : 52 м. 38 с.
    Вид битрейта : Постоянный
    Битрейт : 2863 Кбит/сек
    Ширина : 1920 пикселей
    Высота : 1080 пикселей
    Соотношение сторон : 16: 9
    Режим частоты кадров : Постоянный
    Частота кадров : 30, 000 кадров/сек
    Цветовое пространство : YUV
    Субдискретизация насыщенности : 4: 2: 0
    Битовая глубина : 8 бит
    Тип развёртки : Прогрессивная
    Бит/(Пиксели*Кадры) : 0.046
    Размер потока : 1, 04 Гбайт (95%)
    Язык : English
    Default : Да
    Forced : Нет
    Аудио
    Идентификатор : 2
    Формат : AAC
    Формат/Информация : Advanced Audio Codec
    Профиль формата : LC
    Идентификатор кодека : A_AAC-2
    Продолжительность : 52 м. 38 с.
    Битрейт : 132 Кбит/сек
    Каналы : 2 канала
    Расположение каналов : Front: L R
    Частота : 44, 1 КГц
    Частота кадров : 43, 066 кадра/сек (1024 SPF)
    Метод сжатия : С потерями
    Размер потока : 49, 5 Мбайт (4%)
    Язык : English
    Default : Да
    Forced : Нет


    BBC: Арктика. Как живут за Полярным кругом/Operation Arctic (2016) HDTVRip [H.264/1080p-LQ] (Серии 1-2 из 2) [PR]
    Рейтинг →
     (голосов: 1, оценка 3/5, голосовать можно 1 раз )

    Другие торренты по теме:

  • Олег Дивов и др. | Русская Арктика 2050 [сборник] (2015) [FB2] скачать через торрент бесплатно
  • Анатолий Членов | Твоя Арктика (1969) [PDF] скачать через торрент бесплатно
  • Семен Терентьев | Арктика и Антарктика (2011) [PDF, DJVU]
  • Арктика. Выбор смелых (2017) SATRip
  • С.Ю. Афонькин | Арктика и Антарктика (2010) [PDF]
  • Петр Заспа | Арктика-2020 (2017) [FB2]


    • Комментарии (0):

      Информация

      Информация

        Посетители, находящиеся в группе Гости, не могут оставлять комментарии в данной новости.

        ↓ Меню




        ↓ Опрос

        Вы добавили сайт в закладки?
        Да
        Нет


        Top 10 за месяц (Передачи)