.
Авторизация | Регистрация
Хочешь лучшие торренты? Добавь свой email!
Добавить

Торрент скачать бесплатно

  • support: webmaster@btracker.org
» » NGW: Дикая природа Аргентины. Водное царство / Wild Argentina. Water Kingdoms (2017) HDTV [H.264 / 1080p-LQ] торрент скачать бесплатно


    NGW: Дикая природа Аргентины. Водное царство / Wild Argentina. Water Kingdoms (2017) HDTV [H.264 / 1080p-LQ] торрент скачать бесплатно

    Опубликовал: Админ | Дата: 27-05-2018, 05:00 | .torrent скачали: 0

    NGW: Дикая природа Аргентины. Водное царство / Wild Argentina. Water Kingdoms (2017) HDTV [H.264 / 1080p-LQ]Производство: Нидерланды, Nat Geo Wild
    Жанр: Документальный, природа, флора, фауна
    Продюсер: Эндрю Зиккинг

    Описание

    Немногие страны в Южной Америке могут похвастаться таким контрастом и разнообразием сред обитания своей дикой природы. Здесь можно встретить пингвинов, китов, морских котиков, а также кондоров, броненосцев и лам гуанако.
    Релиз от: Zakol
    Продолжительность: 00: 43: 59
    Качество видео: HDTV
    Перевод: Дублированный
    Субтитры: отсутствуют
    Видео: AVC/H.264, 1920x1080, ~4400 Kbps
    Аудио#1: AAC, 2 ch, 192 Kbps | Русский
    Аудио#2: AAC, 2 ch, 192 Kbps | Английский

    Общее
    Уникальный идентификатор : 148902412692936476044011069937685292095 (0x70058FC1108EEADB16AB5FCA361AE43F)
    Полное имя : F: КИНОДикая прир. Аргентины. Вод. царство 1080p (2017).mkv
    Формат : Matroska
    Версия формата : Version 4/Version 2
    Размер файла : 1, 36 Гбайт
    Продолжительность : 43 м. 58 с.
    Режим общего битрейта : Переменный
    Общий поток : 4423 Кбит/сек
    Дата кодирования : UTC 2018-05-25 05: 03: 31
    Программа кодирования : mkvmerge v23.0.0 (\'The Bride Said No\') 64-bit
    Библиотека кодирования : libebml v1.3.6 + libmatroska v1.4.9
    Видео
    Идентификатор : 1
    Формат : AVC
    Формат/Информация : Advanced Video Codec
    Профиль формата : High@L4
    Настройки формата : CABAC/4 Ref Frames
    Параметр CABAC формата : Да
    Параметр RefFrames формата : 4 кадра
    Идентификатор кодека : V_MPEG4/ISO/AVC
    Продолжительность : 43 м. 58 с.
    Вид битрейта : Переменный
    Битрейт : 4041 Кбит/сек
    Максимальный битрейт : 4500 Кбит/сек
    Ширина : 1920 пикселей
    Высота : 1080 пикселей
    Соотношение сторон : 16: 9
    Режим частоты кадров : Постоянный
    Частота кадров : 25, 000 кадров/сек
    Цветовое пространство : YUV
    Субдискретизация насыщенности : 4: 2: 0
    Битовая глубина : 8 бит
    Тип развёртки : Прогрессивная
    Бит/(Пиксели*Кадры) : 0.078
    Размер потока : 1, 24 Гбайт (91%)
    Default : Да
    Forced : Нет
    Аудио #1
    Идентификатор : 2
    Формат : AAC
    Формат/Информация : Advanced Audio Codec
    Профиль формата : LC
    Идентификатор кодека : A_AAC-2
    Продолжительность : 43 м. 58 с.
    Битрейт : 192 Кбит/сек
    Каналы : 2 канала
    Расположение каналов : Front: L R
    Частота : 48, 0 КГц
    Частота кадров : 46, 875 кадров/сек (1024 SPF)
    Метод сжатия : С потерями
    Размер потока : 59, 6 Мбайт (4%)
    Default : Да
    Forced : Нет
    Аудио #2
    Идентификатор : 3
    Формат : AAC
    Формат/Информация : Advanced Audio Codec
    Профиль формата : LC
    Идентификатор кодека : A_AAC-2
    Продолжительность : 43 м. 58 с.
    Битрейт : 192 Кбит/сек
    Каналы : 2 канала
    Расположение каналов : Front: L R
    Частота : 48, 0 КГц
    Частота кадров : 46, 875 кадров/сек (1024 SPF)
    Метод сжатия : С потерями
    Размер потока : 59, 6 Мбайт (4%)
    Default : Нет
    Forced : Нет

    Скриншоты для ознакомления



    Все одноименные релизы в Клубе
    Время раздачи: с 18: 00 до 23: 00 (до появления первых 3-5 скачавших)


    NGW: Дикая природа Аргентины. Водное царство/Wild Argentina. Water Kingdoms (2017) HDTV [H.264/1080p-LQ]
    Рейтинг →
     (голосов: 1, оценка 3/5, голосовать можно 1 раз )

    Другие торренты по теме:

  • Дикая природа Индокитая: Дикая Камбоджа / Wild Cambodia (2015) HDTVRip [H.264 / 720p]
  • Дикая природа Таиланда / Wild Thailand (2013) HDTVRip [H.264 / 720p] (1-2 серии из 2) скачать через торрент бесплатно
  • Дикая природа Германии / Wildes Deutschland (2011) BDRip [H.264 / 1080p] (Сезон 1, 1-6 серия из 6)
  • Дикая природа Германии / Wildes Deutschland (2012) BDRip [H.264 / 1080p] (Сезон 2, 1-5 серия из 5) скачать через торрент бесплатно
  • Дикая природа Германии / Wildes Deutschland (2011) BDRip [H.264 / 720p] (Сезон 1, 1-6 серия из 6)
  • Гренландия. Дикая природа страны викингов / The Green Land: Wildlife in the Land of Vikings (2005) HDTVRip [H.264 / 1080i]
  • Дикая природа Германии / Wildes Deutschland (2012) BDRip [H.264 / 720p] (Сезон 2, 1-5 серия из 5) скачать через торрент бесплатно
  • Дикая природа Европы / Planet Europa (2013) HDTVRip [H.264 / 720p] (серии 1-13 из 16)


    • Комментарии (0):

      Информация

      Информация

        Посетители, находящиеся в группе Гости, не могут оставлять комментарии в данной новости.

        ↓ Меню




        ↓ Опрос

        Вы добавили сайт в закладки?
        Да
        Нет


        Top 10 за месяц (Передачи)