.
Авторизация | Регистрация
Хочешь лучшие торренты? Добавь свой email!
Добавить

Торрент скачать бесплатно

  • support: webmaster@btracker.org
» » Могилы викингов / Viking Dead (2018) DVB [H.264 / 720p-LQ] (Серии 1-5 из 6) (Обновляемая) торрент скачать бесплатно


    Могилы викингов / Viking Dead (2018) DVB [H.264 / 720p-LQ] (Серии 1-5 из 6) (Обновляемая) торрент скачать бесплатно

    Опубликовал: Админ | Дата: 27-05-2018, 05:00 | .torrent скачали: 0

    Могилы викингов / Viking Dead (2018) DVB [H.264 / 720p-LQ] (Серии 1-5 из 6) (Обновляемая)Производство: Великобритания, Like a Shot Entertainment
    Жанр: Документальный, история, археология, исследования
    Режиссер: Джереми Фристон

    Описание

    Невероятный потерянный флот викингов, как пятьдесят четыре грабителя-викинга встретили свою жуткую смерть? Тим Сазерленд и команда археологов узнают об этих и других кровавых реалиях нападений викингов.
    Релиз от: skorpionN
    Продолжительность: 5x~00: 44: 20
    Качество видео: DVB
    Перевод: Одноголосый закадровый, профессиональный (SDI Media)
    Субтитры: отсутствуют
    Видео: AVC/H.264, 1280х720, ~7400-8800 Kbps
    Аудио#1: MP2, 2 ch, 128 Kbps | Русский, перевод Ирины Штейнбоки, читает Сергей Костылев
    Аудио#2: MP2, 2 ch, 128 Kbps | Английский

    Общее
    Идентификатор : 1 (0x1)
    Полное имя : F: КИНОThe Viking Dead_720p3_The Lost Viking Fleet of Roskilde.ts
    Формат : MPEG-TS
    Размер файла : 2, 73 Гбайт
    Продолжительность : 44 м. 23 с.
    Режим общего битрейта : Переменный
    Общий поток : 8801 Кбит/сек
    Видео
    Идентификатор : 305 (0x131)
    Идентификатор меню : 17105 (0x42D1)
    Формат : AVC
    Формат/Информация : Advanced Video Codec
    Профиль формата : High@L4
    Настройки формата : CABAC/5 Ref Frames
    Параметр CABAC формата : Да
    Параметр RefFrames формата : 5 кадров
    Идентификатор кодека : 27
    Продолжительность : 44 м. 23 с.
    Битрейт : 8108 Кбит/сек
    Ширина : 1280 пикселей
    Высота : 720 пикселей
    Соотношение сторон : 16: 9
    Частота кадров : 50, 000 кадров/сек
    Стандарт вещания : Component
    Цветовое пространство : YUV
    Субдискретизация насыщенности : 4: 2: 0
    Битовая глубина : 8 бит
    Тип развёртки : Прогрессивная
    Бит/(Пиксели*Кадры) : 0.176
    Размер потока : 2, 51 Гбайт (92%)
    Цветовой диапазон : Limited
    Основные цвета : BT.709
    Характеристики трансфера : BT.709
    Коэффициенты матрицы : BT.709
    Аудио #1
    Идентификатор : 405 (0x195)
    Идентификатор меню : 17105 (0x42D1)
    Формат : MPEG Audio
    Версия формата : Version 1
    Профиль формата : Layer 2
    Идентификатор кодека : 3
    Продолжительность : 44 м. 23 с.
    Вид битрейта : Постоянный
    Битрейт : 128 Кбит/сек
    Каналы : 2 канала
    Частота : 48, 0 КГц
    Частота кадров : 41, 667 кадра/сек (1152 SPF)
    Метод сжатия : С потерями
    Задержка видео : -20 мс.
    Размер потока : 40, 6 Мбайт (1%)
    Язык : Russian
    Аудио #2
    Идентификатор : 406 (0x196)
    Идентификатор меню : 17105 (0x42D1)
    Формат : MPEG Audio
    Версия формата : Version 1
    Профиль формата : Layer 2
    Идентификатор кодека : 3
    Продолжительность : 44 м. 23 с.
    Вид битрейта : Постоянный
    Битрейт : 128 Кбит/сек
    Каналы : 2 канала
    Частота : 48, 0 КГц
    Частота кадров : 41, 667 кадра/сек (1152 SPF)
    Метод сжатия : С потерями
    Задержка видео : -20 мс.
    Размер потока : 40, 6 Мбайт (1%)
    Язык : English


    Могилы викингов/Viking Dead (2018) DVB [H.264/720p-LQ] (Серии 1-5 из 6) (Обновляемая)
    Рейтинг →
     (голосов: 1, оценка 5/5, голосовать можно 1 раз )

    Другие торренты по теме:

  • Discovery: Раскрытие загадки могилы короля Тута / Новые загадки могилы Тутанхамона / King Tuts Mystery Tomb Opened (2006) SATRip
  • Искатели. В поисках могилы Митридата (06.02.2015) SATRip
  • Я плюю на ваши могилы 3 / I Spit on Your Grave 3 / I Spit on Your Grave III: Vengeance is Mine (2015) BDRip [H.264 / 1080p] [EN / EN, Sp Sub] скачать через торрент бесплатно
  • Я плюю на ваши могилы 3 / I Spit on Your Grave 3 (2015) HDRip скачать через торрент бесплатно
  • Я плюю на ваши могилы 3 / I Spit on Your Grave 3 (2015) BDRip [H.264 / 720p] скачать через торрент бесплатно
  • Я плюю на ваши могилы 3 / I Spit on Your Grave 3 (2015) [H.264 / 1080p] скачать через торрент бесплатно
  • Я плюю на ваши могилы 3 / I Spit on Your Grave 3 (2015) BDRip [H.264] скачать через торрент бесплатно
  • Я плюю на ваши могилы 3 / I Spit on Your Grave 3 (2015) HDRip скачать через торрент бесплатно


    • Комментарии (0):

      Информация

      Информация

        Посетители, находящиеся в группе Гости, не могут оставлять комментарии в данной новости.

        ↓ Меню




        ↓ Опрос

        Вы добавили сайт в закладки?
        Да
        Нет


        Top 10 за месяц (Передачи)