.
Авторизация | Регистрация
Хочешь лучшие торренты? Добавь свой email!
Добавить

Торрент скачать бесплатно

  • support: webmaster@btracker.org
» » Баскетбол. Евролига 2017-2018. Финал 4-х. Белград (Сербия). Матч за 3-е место. ЦСКА (Россия) – Жальгирис (Литва) (20.05.2018) HDTVRip [H.264 / 720p-LQ] [hand made 50fps] торрент скачать бесплатно


    Баскетбол. Евролига 2017-2018. Финал 4-х. Белград (Сербия). Матч за 3-е место. ЦСКА (Россия) – Жальгирис (Литва) (20.05.2018) HDTVRip [H.264 / 720p-LQ] [hand made 50fps] торрент скачать бесплатно

    Опубликовал: Админ | Дата: 25-05-2018, 05:00 | .torrent скачали: 0

    Баскетбол. Евролига 2017-2018. Финал 4-х. Белград (Сербия). Матч за 3-е место. ЦСКА (Россия) – Жальгирис (Литва) (20.05.2018) HDTVRip [H.264 / 720p-LQ] [hand made 50fps]Телекомпания: Матч! Арена HD
    Жанр: Спорт
    Комментаторы: Сергей Базаревич, Игорь Знаменский

    Описание
    20 мая 2018 года, воскресенье. 18: 00 МСК
    Евролига 2017-2018. Финал 4-х. Белград (Сербия).
    Матч за 3-е место.
    ЦСКА (Россия) – Жальгирис (Литва)
    Стадион: Штарк-Арена (Белград, Сербия), 14548 зрителей (58 % при вместимости 25000)
    Судьи: Даниэль Йерресуэло (Испания), Элиас Коромилас (Греция), Роберт Лоттермозер (Германия)
    Релиз от: toshap
    Продолжительность: 01: 55: 56
    Качество видео: HDTVRip
    Язык озвучки: Русский
    Субтитры: отсутствуют
    Видео: AVC/H.264, 1280x720 (16: 9), ~3258 Kbps, 50 fps
    Аудио: AC3, 2 ch, 48 kHz, 128 Kbps

    Общее
    Уникальный идентификатор : 149413413071726728720567452169277714649 (0x7067FA049B5577C0CA4C03DBDF12B0D9)
    Полное имя : F: SPORTБаскетболЕвролига 2017-2018(20.05.2018)_Euroleague 2018.Final-4.3rd place. CSKA(RUS)–Zalgiris(LTU).mkv
    Формат : Matroska
    Версия формата : Version 4/Version 2
    Размер файла : 2, 75 Гбайт
    Продолжительность : 1 ч. 55 м.
    Режим общего битрейта : Переменный
    Общий поток : 3390 Кбит/сек
    Дата кодирования : UTC 2018-05-24 08: 56: 41
    Программа кодирования : mkvmerge v23.0.0 (\'The Bride Said No\') 32-bit
    Библиотека кодирования : libebml v1.3.6 + libmatroska v1.4.9
    Видео
    Идентификатор : 1
    Формат : AVC
    Формат/Информация : Advanced Video Codec
    Профиль формата : High@L3.2
    Настройки формата : CABAC/4 Ref Frames
    Параметр CABAC формата : Да
    Параметр RefFrames формата : 4 кадра
    Идентификатор кодека : V_MPEG4/ISO/AVC
    Продолжительность : 1 ч. 55 м.
    Вид битрейта : Переменный
    Битрейт : 3258 Кбит/сек
    Максимальный битрейт : 4000 Кбит/сек
    Ширина : 1280 пикселей
    Высота : 720 пикселей
    Соотношение сторон : 16: 9
    Режим частоты кадров : Постоянный
    Частота кадров : 50, 000 кадров/сек
    Стандарт вещания : PAL
    Цветовое пространство : YUV
    Субдискретизация насыщенности : 4: 2: 0
    Битовая глубина : 8 бит
    Тип развёртки : Прогрессивная
    Бит/(Пиксели*Кадры) : 0.071
    Размер потока : 2, 64 Гбайт (96%)
    Default : Да
    Forced : Нет
    Цветовой диапазон : Limited
    Основные цвета : BT.709
    Характеристики трансфера : BT.709
    Коэффициенты матрицы : BT.709
    Аудио
    Идентификатор : 2
    Формат : AC-3
    Формат/Информация : Audio Coding 3
    Идентификатор кодека : A_AC3
    Продолжительность : 1 ч. 55 м.
    Вид битрейта : Постоянный
    Битрейт : 128 Кбит/сек
    Каналы : 2 канала
    Расположение каналов : Front: L R
    Частота : 48, 0 КГц
    Частота кадров : 31, 250 кадров/сек (1536 SPF)
    Битовая глубина : 16 бит
    Метод сжатия : С потерями
    Размер потока : 106 Мбайт (4%)
    Язык : Russian
    ServiceKind/String : Complete Main
    Default : Да
    Forced : Нет

    Скриншоты для ознакомления



    Все одноименные релизы в Клубе
    Время раздачи: 24/7 (около 1 месяца)


    Баскетбол. Евролига 2017-2018. Финал 4-х. Белград (Сербия). Матч за 3-е место. ЦСКА (Россия) – Жальгирис (Литва) (20.05.2018) HDTVRip [H.264/720p-LQ] [hand made 50fps]
    Рейтинг →
     (голосов: 1, оценка 3/5, голосовать можно 1 раз )

    Другие торренты по теме:

  • Баскетбол. Евролига 2015-2016. Группа F. 2 тур. Барселона (Испания) - Химки (Россия) (07.01.2016) HDTVRip [H.264 / 720p-LQ] скачать через торрент бесплатно
  • Баскетбол. Евролига 2015-2016. Группа F. 2 тур. ЦСКА (Москва)-Реал (Испания).(07.01.2016) HDTVRip [H.264 / 720p-LQ] скачать через торрент бесплатно
  • Баскетбол. Евролига 2015-2016. Группа E. 2 тур. Локомотив Кубань (Россия) - Анадолу Эфес (Турция).(08.01.2016) HDTVRip [H.264 / 720p-LQ] скачать через торрент бесплатно
  • Баскетбол. Евролига 2015-2016. Группа F. 3 тур. ЦСКА (Россия) - Барселона (Испания).(14.01.2016) HDTVRip [H.264 / 720p-LQ]
  • Баскетбол. Евролига 2015-2016. Группа F. 3 тур. Химки (Россия) - Лабораль Кутча (Испания).(15.01.2016) HDTVRip [H.264 / 720p-LQ]
  • Баскетбол. Евролига 2015-2016. Группа E. 3 тур. Фенербахче (Турция) - Локомотив Кубань (Россия).(14.01.2016) HDTVRip [H.264 / 720p-LQ]
  • Баскетбол. Евролига 2015-2016. Группа F. 4 тур. Химки (Россия) - Бамберг (Германия).(22.01.2016) HDTVRip [H.264 / 720p-LQ]
  • Баскетбол. Евролига 2015-2016. Группа F. 4 тур. Лабораль Кутча (Испания) - ЦСКА (Россия).(21.01.2016) HDTVRip [H.264 / 720p-LQ]


    • Комментарии (0):

      Информация

      Информация

        Посетители, находящиеся в группе Гости, не могут оставлять комментарии в данной новости.

        ↓ Меню




        ↓ Опрос

        Вы добавили сайт в закладки?
        Да
        Нет


        Top 10 за месяц (Передачи)