.
Авторизация | Регистрация
Хочешь лучшие торренты? Добавь свой email!
Добавить

Торрент скачать бесплатно

  • support: webmaster@btracker.org
» » Баскетбол. Евролига 2017-2018. Финал 4-х. Белград (Сербия). Финал. Реал Мадрид (Испания) – Фенербахче (Турция) (20.05.2018) HDTVRip [H.264 / 720p-LQ] [hand made 50fps] торрент скачать бесплатно


    Баскетбол. Евролига 2017-2018. Финал 4-х. Белград (Сербия). Финал. Реал Мадрид (Испания) – Фенербахче (Турция) (20.05.2018) HDTVRip [H.264 / 720p-LQ] [hand made 50fps] торрент скачать бесплатно

    Опубликовал: Админ | Дата: 25-05-2018, 05:00 | .torrent скачали: 0

    Баскетбол. Евролига 2017-2018. Финал 4-х. Белград (Сербия). Финал. Реал Мадрид (Испания) – Фенербахче (Турция) (20.05.2018) HDTVRip [H.264 / 720p-LQ] [hand made 50fps]Телекомпания: Матч! Арена HD
    Жанр: Спорт
    Комментаторы: Сергей Базаревич, Игорь Знаменский

    Описание
    20 мая 2018 года, воскресенье. 21: 00 МСК
    Евролига 2017-2018. Финал 4-х. Белград (Сербия).
    Финал.
    Реал Мадрид (Мадрид, Испания) – Фенербахче (Стамбул, Турция)
    Стадион: Штарк-Арена (Белград, Сербия), 16967 зрителей (68 % при вместимости 25000)
    Судьи: Луиджи Ламоника (Италия), Борис Рыжик (Украина), Олег Латышев (Латвия)
    Релиз от: Тотти17879
    Продолжительность: 02: 17: 16
    Качество видео: HDTVRip
    Язык озвучки: Русский
    Субтитры: отсутствуют
    Видео: AVC/H.264, 1280x720 (16: 9), ~3500 Kbps, 50 fps
    Аудио: AAC, 2 ch, 48 kHz, 128 Kbps

    Общее
    Уникальный идентификатор : 191722091101944763888027355941027983951 (0x903C54E566960BE3EE1921B27D38324F)
    Полное имя : F: SPORTБаскетболЕвролига 2017-2018(20.05.2018)_Euroleague 2018.Final-4.Final. Fenerbahce(TUR)–Real Madrid(ESP).mkv
    Формат : Matroska
    Версия формата : Version 4/Version 2
    Размер файла : 3, 50 Гбайт
    Продолжительность : 2 ч. 17 м.
    Общий поток : 3651 Кбит/сек
    Дата кодирования : UTC 2018-05-24 17: 58: 47
    Программа кодирования : mkvmerge v23.0.0 (\'The Bride Said No\') 32-bit
    Библиотека кодирования : libebml v1.3.6 + libmatroska v1.4.9
    Видео
    Идентификатор : 1
    Формат : AVC
    Формат/Информация : Advanced Video Codec
    Профиль формата : High@L3.2
    Настройки формата : CABAC/4 Ref Frames
    Параметр CABAC формата : Да
    Параметр RefFrames формата : 4 кадра
    Идентификатор кодека : V_MPEG4/ISO/AVC
    Продолжительность : 2 ч. 17 м.
    Битрейт : 3500 Кбит/сек
    Ширина : 1280 пикселей
    Высота : 720 пикселей
    Соотношение сторон : 16: 9
    Режим частоты кадров : Постоянный
    Частота кадров : 50, 000 кадров/сек
    Цветовое пространство : YUV
    Субдискретизация насыщенности : 4: 2: 0
    Битовая глубина : 8 бит
    Тип развёртки : Прогрессивная
    Бит/(Пиксели*Кадры) : 0.076
    Размер потока : 3, 37 Гбайт (96%)
    Библиотека кодирования : x264 core 146 r2538 121396c
    Настройки программы : cabac=1/ref=3/deblock=1: 0: 0/analyse=0x3: 0x113/me=hex/subme=7/psy=1/psy_rd=1.00: 0.00/mixed_ref=1/me_range=16/chroma_me=1/trellis=1/8x8dct=1/cqm=0/deadzone=21, 11/fast_pskip=1/chroma_qp_offset=-2/threads=12/lookahead_threads=2/sliced_threads=0/nr=0/decimate=1/interlaced=0/bluray_compat=0/constrained_intra=0/bframes=3/b_pyramid=2/b_adapt=1/b_bias=0/direct=1/weightb=1/open_gop=0/weightp=2/keyint=250/keyint_min=25/scenecut=40/intra_refresh=0/rc_lookahead=40/rc=abr/mbtree=1/bitrate=3500/ratetol=1.0/qcomp=0.60/qpmin=0/qpmax=69/qpstep=4/ip_ratio=1.40/aq=1: 1.00
    Default : Да
    Forced : Нет
    Аудио
    Идентификатор : 2
    Формат : AAC
    Формат/Информация : Advanced Audio Codec
    Профиль формата : LC
    Идентификатор кодека : A_AAC-2
    Продолжительность : 2 ч. 17 м.
    Битрейт : 128 Кбит/сек
    Каналы : 2 канала
    Расположение каналов : Front: L R
    Частота : 48, 0 КГц
    Частота кадров : 46, 875 кадров/сек (1024 SPF)
    Метод сжатия : С потерями
    Задержка видео : 9 мс.
    Размер потока : 126 Мбайт (4%)
    Язык : Russian
    Default : Да
    Forced : Нет

    Скриншоты для ознакомления



    Все одноименные релизы в Клубе
    Время раздачи: 24/7 (около 1 месяца)


    Баскетбол. Евролига 2017-2018. Финал 4-х. Белград (Сербия). Финал. Реал Мадрид (Испания) – Фенербахче (Турция) (20.05.2018) HDTVRip [H.264/720p-LQ] [hand made 50fps]
    Рейтинг →
     (голосов: 1, оценка 4/5, голосовать можно 1 раз )

    Другие торренты по теме:

  • Баскетбол. Евролига 2015-2016. Группа F. 2 тур. Барселона (Испания) - Химки (Россия) (07.01.2016) HDTVRip [H.264 / 720p-LQ] скачать через торрент бесплатно
  • Баскетбол. Евролига 2015-2016. Группа F. 2 тур. ЦСКА (Москва)-Реал (Испания).(07.01.2016) HDTVRip [H.264 / 720p-LQ] скачать через торрент бесплатно
  • Баскетбол. Евролига 2015-2016. Группа E. 2 тур. Локомотив Кубань (Россия) - Анадолу Эфес (Турция).(08.01.2016) HDTVRip [H.264 / 720p-LQ] скачать через торрент бесплатно
  • Баскетбол. Евролига 2015-2016. Группа F. 3 тур. ЦСКА (Россия) - Барселона (Испания).(14.01.2016) HDTVRip [H.264 / 720p-LQ]
  • Баскетбол. Евролига 2015-2016. Группа F. 3 тур. Химки (Россия) - Лабораль Кутча (Испания).(15.01.2016) HDTVRip [H.264 / 720p-LQ]
  • Баскетбол. Евролига 2015-2016. Группа E. 3 тур. Фенербахче (Турция) - Локомотив Кубань (Россия).(14.01.2016) HDTVRip [H.264 / 720p-LQ]
  • Баскетбол. Евролига 2015-2016. Группа F. 4 тур. Химки (Россия) - Бамберг (Германия).(22.01.2016) HDTVRip [H.264 / 720p-LQ]
  • Баскетбол. Евролига 2015-2016. Группа F. 4 тур. Лабораль Кутча (Испания) - ЦСКА (Россия).(21.01.2016) HDTVRip [H.264 / 720p-LQ]


    • Комментарии (0):

      Информация

      Информация

        Посетители, находящиеся в группе Гости, не могут оставлять комментарии в данной новости.

        ↓ Меню




        ↓ Опрос

        Вы добавили сайт в закладки?
        Да
        Нет


        Top 10 за месяц (Передачи)