.
Авторизация | Регистрация
Хочешь лучшие торренты? Добавь свой email!
Добавить

Торрент скачать бесплатно

  • support: webmaster@btracker.org
» » Хоккей. Чемпионат мира 2018. Группа A. Чехия – Австрия (14.05.2018) HDTV [H.264 / 1080i-LQ] торрент скачать бесплатно


    Хоккей. Чемпионат мира 2018. Группа A. Чехия – Австрия (14.05.2018) HDTV [H.264 / 1080i-LQ] торрент скачать бесплатно

    Опубликовал: Админ | Дата: 24-05-2018, 05:00 | .torrent скачали: 0

    Хоккей. Чемпионат мира 2018. Группа A. Чехия – Австрия (14.05.2018) HDTV [H.264 / 1080i-LQ]Телекомпания: Матч! Игра HD
    Жанр: Спорт
    Комментаторы: Кирилл Корнилов, Олег Мосалёв

    Описание
    14 мая 2018 года, понедельник. 21: 15 МСК
    82-й Чемпионат мира по хоккею с шайбой 2018 года
    Группа A. 7-й Тур
    Чехия – Австрия
    Стадион: Роял-Арена (Копенгаген, Дания), 3843 зрителя (31 % при вместимости 12500)
    Главные судьи: Константин Оленин (Россия), Гордон Шукис (Германия)
    Линейные судьи: Рене Йенсен (Дания), Александр Отмахов (Россия)
    Релиз от: toshap
    Продолжительность: 01: 48: 24
    Качество видео: HDTV
    Язык озвучки: Русский
    Субтитры: отсутствуют
    Видео: AVC/H.264, 1920x1080 (16: 9), ~8049 Kbps
    Аудио #1: AC3, 2 ch, 48 kHz, 448 Kbps
    Аудио #2: MP2, 2 ch, 48 kHz, 192 Kbps

    Общее
    Идентификатор : 12 (0xC)
    Полное имя : C: UsersADMINDownloadsVideo2018 IIHF Ice Hockey World Championship(14.05.2018)_IIHF WCh 2018.PR7.Gr A. CZE - AUT_1080i.ts
    Формат : MPEG-TS
    Размер файла : 6, 93 Гбайт
    Продолжительность : 1 ч. 48 м.
    Режим общего битрейта : Переменный
    Общий поток : 9147 Кбит/сек
    Видео
    Идентификатор : 322 (0x142)
    Идентификатор меню : 12102 (0x2F46)
    Формат : AVC
    Формат/Информация : Advanced Video Codec
    Профиль формата : High@L4
    Настройки формата : CABAC/4 Ref Frames
    Параметр CABAC формата : Да
    Параметр RefFrames формата : 4 кадра
    Идентификатор кодека : 27
    Продолжительность : 1 ч. 48 м.
    Битрейт : 8049 Кбит/сек
    Ширина : 1920 пикселей
    Высота : 1080 пикселей
    Соотношение сторон : 16: 9
    Частота кадров : 25, 000 кадров/сек
    Стандарт вещания : Component
    Цветовое пространство : YUV
    Субдискретизация насыщенности : 4: 2: 0
    Битовая глубина : 8 бит
    Тип развёртки : Чересстрочная
    Метод сохранения типа развёртки : Раздельные поля
    Порядок развёртки : Верхнее поле первое
    Бит/(Пиксели*Кадры) : 0.155
    Размер потока : 6, 09 Гбайт (88%)
    Цветовой диапазон : Limited
    Основные цвета : BT.709
    Характеристики трансфера : BT.709
    Коэффициенты матрицы : BT.709
    Аудио #1
    Идентификатор : 402 (0x192)
    Идентификатор меню : 12102 (0x2F46)
    Формат : AC-3
    Формат/Информация : Audio Coding 3
    Идентификатор кодека : 6
    Продолжительность : 1 ч. 48 м.
    Вид битрейта : Постоянный
    Битрейт : 448 Кбит/сек
    Каналы : 2 канала
    Расположение каналов : Front: L R
    Частота : 48, 0 КГц
    Частота кадров : 31, 250 кадров/сек (1536 SPF)
    Битовая глубина : 16 бит
    Метод сжатия : С потерями
    Задержка видео : 48 мс.
    Размер потока : 347 Мбайт (5%)
    Язык : Russian
    Язык, дополнительно : Clean effects
    ServiceKind/String : Complete Main
    Аудио #2
    Идентификатор : 422 (0x1A6)
    Идентификатор меню : 12102 (0x2F46)
    Формат : MPEG Audio
    Версия формата : Version 1
    Профиль формата : Layer 2
    Идентификатор кодека : 4
    Продолжительность : 1 ч. 48 м.
    Вид битрейта : Постоянный
    Битрейт : 192 Кбит/сек
    Каналы : 2 канала
    Частота : 48, 0 КГц
    Частота кадров : 41, 667 кадра/сек (1152 SPF)
    Метод сжатия : С потерями
    Задержка видео : 128 мс.
    Размер потока : 149 Мбайт (2%)
    Язык : Russian
    Язык, дополнительно : Clean effects

    Скриншоты для ознакомления



    Все одноименные релизы в Клубе
    Время раздачи: 24/7 (до появления первых 3-5 скачавших)


    Хоккей. Чемпионат мира 2018. Группа A. Чехия – Австрия (14.05.2018) HDTV [H.264/1080i-LQ]
    Рейтинг →
     (голосов: 1, оценка 5/5, голосовать можно 1 раз )

    Другие торренты по теме:

  • Хоккей. Чемпионат мира-2015 (Группа В. 1 тур. Россия - Норвегия) (2015.05.01) HDTVRip скачать через торрент бесплатно
  • Хоккей. Чемпионат мира-2015 (Группа B. 2 тур. Россия - Словения ) (2015.05.03) HDTVRip скачать через торрент бесплатно
  • Хоккей. Чемпионат мира-2015 (Группа B. 3 тур. Россия - США) (2015.05.04) HDTVRip скачать через торрент бесплатно
  • Хоккей. Чемпионат мира-2015 (Группа B. 6 тур. Россия - Словакия ) (2015.05.10) HDTVRip скачать через торрент бесплатно
  • Хоккей. Чемпионат мира-2015 (1.4 финала. Россия-Швеция) (2015.05.14) HDTVRip скачать через торрент бесплатно
  • Хоккей. Чемпионат мира-2015 (Полуфинал. Россия-США) (2015.05.16) HDTVRip [H.264 / 720p] скачать через торрент бесплатно
  • Хоккей. Чемпионат мира-2015 (Полуфинал. Россия-США) (2015.05.16) HDTVRip скачать через торрент бесплатно
  • Хоккей. Чемпионат мира-2015 (Финал. Россия-Канада) (2015.05.17) HDTVRip скачать через торрент бесплатно


    • Комментарии (0):

      Информация

      Информация

        Посетители, находящиеся в группе Гости, не могут оставлять комментарии в данной новости.

        ↓ Меню




        ↓ Опрос

        Вы добавили сайт в закладки?
        Да
        Нет


        Top 10 за месяц (Передачи)