.
Авторизация | Регистрация
Хочешь лучшие торренты? Добавь свой email!
Добавить

Торрент скачать бесплатно

  • support: webmaster@btracker.org
» » Хоккей. Чемпионат мира 2018. Группа B. Канада – Латвия (14.05.2018) HDTVRip [H.264 / 720p-LQ] [hand made 50fps] торрент скачать бесплатно


    Хоккей. Чемпионат мира 2018. Группа B. Канада – Латвия (14.05.2018) HDTVRip [H.264 / 720p-LQ] [hand made 50fps] торрент скачать бесплатно

    Опубликовал: Админ | Дата: 24-05-2018, 05:00 | .torrent скачали: 0

    Хоккей. Чемпионат мира 2018. Группа B. Канада – Латвия (14.05.2018) HDTVRip [H.264 / 720p-LQ] [hand made 50fps]Телекомпания: Матч ТВ HD
    Жанр: Спорт
    Комментатор: Денис Казанский

    Описание
    14 мая 2018 года, понедельник. 21: 15 МСК
    82-й Чемпионат мира по хоккею с шайбой 2018 года
    Группа B. 6-й Тур
    Канада – Латвия
    Стадион: Йюске Банк Боксен (Хернинг, Дания), 2966 зрителей (27 % при вместимости 11000)
    Главные судьи: Тобиас Верли (Швейцария), Стивен Рено (США)
    Линейные судьи: Андреас Мальмквист (Швеция), Петер Шефчик (Словакия)
    Продолжительность: 01: 55: 49
    Качество видео: HDTVRip
    Язык озвучки: Русский, Интершум
    Субтитры: отсутствуют
    Видео: AVC/H.264, 1280x720 (16: 9), ~4155 Kbps, 50 fps
    Аудио #1: AC3, 2 ch, 48 kHz, 128 Kbps | Русский
    Аудио #2: AC3, 2 ch, 48 kHz, 128 Kbps | Интершум

    Общее
    Уникальный идентификатор : 62918281917858023664767683976971127539 (0x2F559ECD423DE288CF9C2BB888DF8AF3)
    Полное имя : F: SPORTХоккей2018 IIHF Ice Hockey World Championship(14.05.2018)_IIHF WCh 2018.PR6.Gr B. CAN - LAT.mkv
    Формат : Matroska
    Версия формата : Version 2
    Размер файла : 3, 64 Гбайт
    Продолжительность : 1 ч. 55 м.
    Общий поток : 4501 Кбит/сек
    Программа кодирования : Lavf54.63.104
    Библиотека кодирования : Lavf54.63.104
    Видео
    Идентификатор : 1
    Формат : AVC
    Формат/Информация : Advanced Video Codec
    Профиль формата : High@L3.2
    Настройки формата : CABAC/4 Ref Frames
    Параметр CABAC формата : Да
    Параметр RefFrames формата : 4 кадра
    Идентификатор кодека : V_MPEG4/ISO/AVC
    Продолжительность : 1 ч. 55 м.
    Битрейт : 4155 Кбит/сек
    Ширина : 1280 пикселей
    Высота : 720 пикселей
    Соотношение сторон : 16: 9
    Режим частоты кадров : Постоянный
    Частота кадров : 50, 000 кадров/сек
    Цветовое пространство : YUV
    Субдискретизация насыщенности : 4: 2: 0
    Битовая глубина : 8 бит
    Тип развёртки : Прогрессивная
    Бит/(Пиксели*Кадры) : 0.090
    Размер потока : 3, 36 Гбайт (92%)
    Default : Нет
    Forced : Нет
    Аудио #1
    Идентификатор : 2
    Формат : AC-3
    Формат/Информация : Audio Coding 3
    Идентификатор кодека : A_AC3
    Продолжительность : 1 ч. 55 м.
    Вид битрейта : Постоянный
    Битрейт : 128 Кбит/сек
    Каналы : 2 канала
    Расположение каналов : Front: L R
    Частота : 48, 0 КГц
    Частота кадров : 31, 250 кадров/сек (1536 SPF)
    Битовая глубина : 16 бит
    Метод сжатия : С потерями
    Размер потока : 106 Мбайт (3%)
    Язык : Russian
    ServiceKind/String : Complete Main
    Default : Да
    Forced : Нет
    Аудио #2
    Идентификатор : 3
    Формат : AC-3
    Формат/Информация : Audio Coding 3
    Идентификатор кодека : A_AC3
    Продолжительность : 1 ч. 55 м.
    Вид битрейта : Постоянный
    Битрейт : 128 Кбит/сек
    Каналы : 2 канала
    Расположение каналов : Front: L R
    Частота : 48, 0 КГц
    Частота кадров : 31, 250 кадров/сек (1536 SPF)
    Битовая глубина : 16 бит
    Метод сжатия : С потерями
    Размер потока : 106 Мбайт (3%)
    ServiceKind/String : Complete Main
    Default : Нет
    Forced : Нет

    Скриншоты для ознакомления



    Все одноименные релизы в Клубе
    Время раздачи: 24/7 (до 1 месяца)


    Хоккей. Чемпионат мира 2018. Группа B. Канада – Латвия (14.05.2018) HDTVRip [H.264/720p-LQ] [hand made 50fps]
    Рейтинг →
     (голосов: 1, оценка 5/5, голосовать можно 1 раз )

    Другие торренты по теме:

  • Хоккей. Чемпионат мира-2015 (Группа В. 1 тур. Россия - Норвегия) (2015.05.01) HDTVRip скачать через торрент бесплатно
  • Хоккей. Чемпионат мира-2015 (Группа B. 2 тур. Россия - Словения ) (2015.05.03) HDTVRip скачать через торрент бесплатно
  • Хоккей. Чемпионат мира-2015 (Группа B. 3 тур. Россия - США) (2015.05.04) HDTVRip скачать через торрент бесплатно
  • Хоккей. Чемпионат мира-2015 (Группа B. 6 тур. Россия - Словакия ) (2015.05.10) HDTVRip скачать через торрент бесплатно
  • Хоккей. Чемпионат мира-2015 (1.4 финала. Россия-Швеция) (2015.05.14) HDTVRip скачать через торрент бесплатно
  • Хоккей. Чемпионат мира-2015 (Полуфинал. Россия-США) (2015.05.16) HDTVRip [H.264 / 720p] скачать через торрент бесплатно
  • Хоккей. Чемпионат мира-2015 (Полуфинал. Россия-США) (2015.05.16) HDTVRip скачать через торрент бесплатно
  • Хоккей. Чемпионат мира-2015 (Финал. Россия-Канада) (2015.05.17) HDTVRip скачать через торрент бесплатно


    • Комментарии (0):

      Информация

      Информация

        Посетители, находящиеся в группе Гости, не могут оставлять комментарии в данной новости.

        ↓ Меню




        ↓ Опрос

        Вы добавили сайт в закладки?
        Да
        Нет


        Top 10 за месяц (Передачи)