.
Авторизация | Регистрация
Хочешь лучшие торренты? Добавь свой email!
Добавить

Торрент скачать бесплатно

  • support: webmaster@btracker.org
» » Хоккей. Чемпионат мира 2018. Группа B. Южная Корея – Норвегия (14.05.2018) HDTVRip [H.264 / 720p-LQ] [hand made 50fps] торрент скачать бесплатно


    Хоккей. Чемпионат мира 2018. Группа B. Южная Корея – Норвегия (14.05.2018) HDTVRip [H.264 / 720p-LQ] [hand made 50fps] торрент скачать бесплатно

    Опубликовал: Админ | Дата: 24-05-2018, 05:00 | .torrent скачали: 0

    Хоккей. Чемпионат мира 2018. Группа B. Южная Корея – Норвегия (14.05.2018) HDTVRip [H.264 / 720p-LQ] [hand made 50fps]Телекомпания: Матч! Игра HD
    Жанр: Спорт
    Комментатор: Олег Мосалёв

    Описание
    14 мая 2018 года, понедельник. 17: 15 МСК
    82-й Чемпионат мира по хоккею с шайбой 2018 года
    Группа B. 7-й Тур
    Южная Корея – Норвегия
    Стадион: Йюске Банк Боксен (Хернинг, Дания), 3330 зрителей (30 % при вместимости 11000)
    Главные судьи: Бретт Айверсон (Канада), Микко Каукокари (Финляндия)
    Линейные судьи: Дмитрий Голяк (Белорусь), Дастин Маккранк (Канада)
    Релиз от: toshap
    Продолжительность: 01: 55: 52
    Качество видео: HDTVRip
    Язык озвучки: Русский
    Субтитры: отсутствуют
    Видео: AVC/H.264, 1280x720 (16: 9), ~4021 Kbps, 50 fps
    Аудио: AC3, 2 ch, 48 kHz, 448 Kbps

    Общее
    Уникальный идентификатор : 62129232878857435981307698454855269316 (0x2EBDA7AE3B67003EAC2E6A5EB0A9BBC4)
    Полное имя : F: SPORTХоккей2018 IIHF Ice Hockey World Championship(14.05.2018)_IIHF WCh 2018.PR7.Gr B. KOR - NOR.mkv
    Формат : Matroska
    Версия формата : Version 4/Version 2
    Размер файла : 3, 69 Гбайт
    Продолжительность : 1 ч. 55 м.
    Общий поток : 4560 Кбит/сек
    Программа кодирования : Lavf58.10.100
    Библиотека кодирования : Lavf58.10.100
    ErrorDetectionType : Per level 1
    Видео
    Идентификатор : 1
    Формат : AVC
    Формат/Информация : Advanced Video Codec
    Профиль формата : High@L3.2
    Настройки формата : CABAC/4 Ref Frames
    Параметр CABAC формата : Да
    Параметр RefFrames формата : 4 кадра
    Идентификатор кодека : V_MPEG4/ISO/AVC
    Продолжительность : 1 ч. 55 м.
    Битрейт : 4021 Кбит/сек
    Ширина : 1280 пикселей
    Высота : 720 пикселей
    Соотношение сторон : 16: 9
    Режим частоты кадров : Постоянный
    Частота кадров : 50, 000 кадров/сек
    Цветовое пространство : YUV
    Субдискретизация насыщенности : 4: 2: 0
    Битовая глубина : 8 бит
    Тип развёртки : Прогрессивная
    Бит/(Пиксели*Кадры) : 0.087
    Размер потока : 3, 25 Гбайт (88%)
    Библиотека кодирования : x264 core 155 r2901 7d0ff22
    Настройки программы : cabac=1/ref=3/deblock=1: 0: 0/analyse=0x3: 0x113/me=hex/subme=7/psy=1/psy_rd=1.00: 0.00/mixed_ref=1/me_range=16/chroma_me=1/trellis=1/8x8dct=1/cqm=0/deadzone=21, 11/fast_pskip=1/chroma_qp_offset=-2/threads=12/lookahead_threads=2/sliced_threads=0/nr=0/decimate=1/interlaced=0/bluray_compat=0/constrained_intra=0/bframes=3/b_pyramid=2/b_adapt=1/b_bias=0/direct=1/weightb=1/open_gop=0/weightp=2/keyint=250/keyint_min=25/scenecut=40/intra_refresh=0/rc_lookahead=40/rc=crf/mbtree=1/crf=21.5/qcomp=0.60/qpmin=0/qpmax=69/qpstep=4/ip_ratio=1.40/aq=1: 1.00
    Default : Да
    Forced : Нет
    Аудио
    Идентификатор : 2
    Формат : AC-3
    Формат/Информация : Audio Coding 3
    Идентификатор кодека : A_AC3
    Продолжительность : 1 ч. 55 м.
    Вид битрейта : Постоянный
    Битрейт : 448 Кбит/сек
    Каналы : 2 канала
    Расположение каналов : Front: L R
    Частота : 48, 0 КГц
    Частота кадров : 31, 250 кадров/сек (1536 SPF)
    Битовая глубина : 16 бит
    Метод сжатия : С потерями
    Задержка видео : -12 мс.
    Размер потока : 371 Мбайт (10%)
    Язык : Russian
    ServiceKind/String : Complete Main
    Default : Да
    Forced : Нет

    Скриншоты для ознакомления



    Все одноименные релизы в Клубе
    Время раздачи: 24/7 (до 1 месяца)


    Хоккей. Чемпионат мира 2018. Группа B. Южная Корея – Норвегия (14.05.2018) HDTVRip [H.264/720p-LQ] [hand made 50fps]
    Рейтинг →
     (голосов: 1, оценка 5/5, голосовать можно 1 раз )

    Другие торренты по теме:

  • Хоккей. Чемпионат мира-2015 (Группа В. 1 тур. Россия - Норвегия) (2015.05.01) HDTVRip скачать через торрент бесплатно
  • Хоккей. Чемпионат мира-2015 (Группа B. 2 тур. Россия - Словения ) (2015.05.03) HDTVRip скачать через торрент бесплатно
  • Хоккей. Чемпионат мира-2015 (Группа B. 3 тур. Россия - США) (2015.05.04) HDTVRip скачать через торрент бесплатно
  • Хоккей. Чемпионат мира-2015 (Группа B. 6 тур. Россия - Словакия ) (2015.05.10) HDTVRip скачать через торрент бесплатно
  • Хоккей. Чемпионат мира-2015 (1.4 финала. Россия-Швеция) (2015.05.14) HDTVRip скачать через торрент бесплатно
  • Хоккей. Чемпионат мира-2015 (Полуфинал. Россия-США) (2015.05.16) HDTVRip [H.264 / 720p] скачать через торрент бесплатно
  • Хоккей. Чемпионат мира-2015 (Полуфинал. Россия-США) (2015.05.16) HDTVRip скачать через торрент бесплатно
  • Хоккей. Чемпионат мира-2015 (Финал. Россия-Канада) (2015.05.17) HDTVRip скачать через торрент бесплатно


    • Комментарии (0):

      Информация

      Информация

        Посетители, находящиеся в группе Гости, не могут оставлять комментарии в данной новости.

        ↓ Меню




        ↓ Опрос

        Вы добавили сайт в закладки?
        Да
        Нет


        Top 10 за месяц (Передачи)