.
Авторизация | Регистрация
Хочешь лучшие торренты? Добавь свой email!
Добавить

Торрент скачать бесплатно

  • support: webmaster@btracker.org
» » Хоккей. Чемпионат мира 2018. Группа A. Беларусь – Словакия (15.05.2018) HDTVRip [H.264 / 720p-LQ] [hand made 50fps] торрент скачать бесплатно


    Хоккей. Чемпионат мира 2018. Группа A. Беларусь – Словакия (15.05.2018) HDTVRip [H.264 / 720p-LQ] [hand made 50fps] торрент скачать бесплатно

    Опубликовал: Админ | Дата: 24-05-2018, 05:00 | .torrent скачали: 0

    Хоккей. Чемпионат мира 2018. Группа A. Беларусь – Словакия (15.05.2018) HDTVRip [H.264 / 720p-LQ] [hand made 50fps]Телекомпания: Матч! Игра HD
    Жанр: Спорт
    Комментатор: Юрий Розанов

    Описание
    15 мая 2018 года, вторник. 17: 15 МСК
    82-й Чемпионат мира по хоккею с шайбой 2018 года
    Группа A. 7-й Тур
    Беларусь – Словакия
    Стадион: Роял-Арена (Копенгаген, Дания), 4857 зрителей (39 % при вместимости 12500)
    Главные судьи: Ян Грибик (Чехия), Марк Лемелин (Австрия)
    Линейные судьи: Юн Килиан (Норвегия), Брайан Оливер (США)
    Релиз от: toshap
    Продолжительность: 01: 53: 26
    Качество видео: HDTVRip
    Язык озвучки: Русский
    Субтитры: отсутствуют
    Видео: AVC/H.264, 1280x720 (16: 9), ~3463 Kbps, 50 fps
    Аудио: AC3, 2 ch, 48 kHz, 448 Kbps

    Общее
    Уникальный идентификатор : 96432963557894076900008910613121441069 (0x488C502ECE8A9E19A35877EA22E59D2D)
    Полное имя : F: SPORTХоккей2018 IIHF Ice Hockey World Championship(15.05.2018)_IIHF WCh 2018.PR7.Gr A. BLR - SVK.mkv
    Формат : Matroska
    Версия формата : Version 4/Version 2
    Размер файла : 3, 16 Гбайт
    Продолжительность : 1 ч. 53 м.
    Общий поток : 3990 Кбит/сек
    Программа кодирования : Lavf58.10.100
    Библиотека кодирования : Lavf58.10.100
    ErrorDetectionType : Per level 1
    Видео
    Идентификатор : 1
    Формат : AVC
    Формат/Информация : Advanced Video Codec
    Профиль формата : High@L3.2
    Настройки формата : CABAC/4 Ref Frames
    Параметр CABAC формата : Да
    Параметр RefFrames формата : 4 кадра
    Идентификатор кодека : V_MPEG4/ISO/AVC
    Продолжительность : 1 ч. 53 м.
    Битрейт : 3463 Кбит/сек
    Ширина : 1280 пикселей
    Высота : 720 пикселей
    Соотношение сторон : 16: 9
    Режим частоты кадров : Постоянный
    Частота кадров : 50, 000 кадров/сек
    Цветовое пространство : YUV
    Субдискретизация насыщенности : 4: 2: 0
    Битовая глубина : 8 бит
    Тип развёртки : Прогрессивная
    Бит/(Пиксели*Кадры) : 0.075
    Размер потока : 2, 74 Гбайт (87%)
    Библиотека кодирования : Lavc58.16.100 libx264
    Default : Да
    Forced : Нет
    Аудио
    Идентификатор : 2
    Формат : AC-3
    Формат/Информация : Audio Coding 3
    Идентификатор кодека : A_AC3
    Продолжительность : 1 ч. 53 м.
    Вид битрейта : Постоянный
    Битрейт : 448 Кбит/сек
    Каналы : 2 канала
    Расположение каналов : Front: L R
    Частота : 48, 0 КГц
    Частота кадров : 31, 250 кадров/сек (1536 SPF)
    Битовая глубина : 16 бит
    Метод сжатия : С потерями
    Задержка видео : -32 мс.
    Размер потока : 363 Мбайт (11%)
    Язык : Russian
    ServiceKind/String : Complete Main
    Default : Да
    Forced : Нет

    Скриншоты для ознакомления



    Все одноименные релизы в Клубе
    Время раздачи: 24/7 (до 1 месяца)


    Хоккей. Чемпионат мира 2018. Группа A. Беларусь – Словакия (15.05.2018) HDTVRip [H.264/720p-LQ] [hand made 50fps]
    Рейтинг →
     (голосов: 1, оценка 4/5, голосовать можно 1 раз )

    Другие торренты по теме:

  • Хоккей. Чемпионат мира-2015 (Группа В. 1 тур. Россия - Норвегия) (2015.05.01) HDTVRip скачать через торрент бесплатно
  • Хоккей. Чемпионат мира-2015 (Группа B. 2 тур. Россия - Словения ) (2015.05.03) HDTVRip скачать через торрент бесплатно
  • Хоккей. Чемпионат мира-2015 (Группа B. 3 тур. Россия - США) (2015.05.04) HDTVRip скачать через торрент бесплатно
  • Хоккей. Чемпионат мира-2015 (Группа B. 6 тур. Россия - Словакия ) (2015.05.10) HDTVRip скачать через торрент бесплатно
  • Хоккей. Чемпионат мира-2015 (1.4 финала. Россия-Швеция) (2015.05.14) HDTVRip скачать через торрент бесплатно
  • Хоккей. Чемпионат мира-2015 (Полуфинал. Россия-США) (2015.05.16) HDTVRip [H.264 / 720p] скачать через торрент бесплатно
  • Хоккей. Чемпионат мира-2015 (Полуфинал. Россия-США) (2015.05.16) HDTVRip скачать через торрент бесплатно
  • Хоккей. Чемпионат мира-2015 (Финал. Россия-Канада) (2015.05.17) HDTVRip скачать через торрент бесплатно


    • Комментарии (0):

      Информация

      Информация

        Посетители, находящиеся в группе Гости, не могут оставлять комментарии в данной новости.

        ↓ Меню




        ↓ Опрос

        Вы добавили сайт в закладки?
        Да
        Нет


        Top 10 за месяц (Передачи)