.
Авторизация | Регистрация
Хочешь лучшие торренты? Добавь свой email!
Добавить

Торрент скачать бесплатно

  • support: webmaster@btracker.org
» » Хоккей. Чемпионат мира 2018. Группа A. Россия – Швеция (15.05.2018) WEB-DL [H.264 / 720p-LQ] торрент скачать бесплатно


    Хоккей. Чемпионат мира 2018. Группа A. Россия – Швеция (15.05.2018) WEB-DL [H.264 / 720p-LQ] торрент скачать бесплатно

    Опубликовал: Админ | Дата: 24-05-2018, 05:00 | .torrent скачали: 0

    Хоккей. Чемпионат мира 2018. Группа A. Россия – Швеция (15.05.2018) WEB-DL [H.264 / 720p-LQ]Телекомпания: Первый канал HD
    Жанр: Спорт
    Комментаторы: Александр Кузьмак, Андрей Юртаев, Алексей Яшин

    Описание
    15 мая 2018 года, вторник. 21: 15 МСК
    82-й Чемпионат мира по хоккею с шайбой 2018 года
    Группа A. 7-й Тур
    Россия – Швеция
    Стадион: Роял-Арена (Копенгаген, Дания), 12490 зрителей (100 % при вместимости 12500)
    Главные судьи: Оливье Гуэн (Канада), Тимоти Майер (США)
    Линейные судьи: Ханну Сормунен (Финляндия), Натан Ваностен (Канада)
    Продолжительность: 02: 03: 50
    Качество видео: WEB-DL
    Язык озвучки: Русский
    Субтитры: отсутствуют
    Видео: AVC/H.264, 1280x720 (16: 9), ~3801 Kbps
    Аудио: AAC, 2 ch, 48 kHz, 128 Kbps

    Общее
    Уникальный идентификатор : 270740554240458490096721688239086961828 (0xCBAEBBEB2BB0AB0F6779B6AE271B04A4)
    Полное имя : F: SPORTХоккей2018 IIHF Ice Hockey World Championship(15.05.2018)_IIHF WCh 2018.PR7.Gr A. RUS - SWE_1HD.mkv
    Формат : Matroska
    Версия формата : Version 4/Version 2
    Размер файла : 3, 40 Гбайт
    Продолжительность : 2 ч. 3 м.
    Общий поток : 3931 Кбит/сек
    Дата кодирования : UTC 2018-05-16 20: 43: 47
    Программа кодирования : mkvmerge v23.0.0 (\'The Bride Said No\') 32-bit
    Библиотека кодирования : libebml v1.3.6 + libmatroska v1.4.9
    Видео
    Идентификатор : 1
    Формат : AVC
    Формат/Информация : Advanced Video Codec
    Профиль формата : High@L3.1
    Настройки формата : CABAC/4 Ref Frames
    Параметр CABAC формата : Да
    Параметр RefFrames формата : 4 кадра
    Идентификатор кодека : V_MPEG4/ISO/AVC
    Продолжительность : 2 ч. 3 м.
    Битрейт : 3801 Кбит/сек
    Ширина : 1280 пикселей
    Высота : 720 пикселей
    Соотношение сторон : 16: 9
    Режим частоты кадров : Постоянный
    Частота кадров : 25, 000 кадров/сек
    Цветовое пространство : YUV
    Субдискретизация насыщенности : 4: 2: 0
    Битовая глубина : 8 бит
    Тип развёртки : Прогрессивная
    Бит/(Пиксели*Кадры) : 0.165
    Размер потока : 3, 29 Гбайт (97%)
    Default : Да
    Forced : Нет
    Аудио
    Идентификатор : 2
    Формат : AAC
    Формат/Информация : Advanced Audio Codec
    Профиль формата : LC
    Идентификатор кодека : A_AAC-2
    Продолжительность : 2 ч. 3 м.
    Битрейт : 128 Кбит/сек
    Каналы : 2 канала
    Расположение каналов : Front: L R
    Частота : 48, 0 КГц
    Частота кадров : 46, 875 кадров/сек (1024 SPF)
    Метод сжатия : С потерями
    Размер потока : 113 Мбайт (3%)
    Язык : Russian
    Default : Да
    Forced : Нет

    Скриншоты для ознакомления



    Все одноименные релизы в Клубе
    Время раздачи: 24/7 (до 1 месяца)


    Хоккей. Чемпионат мира 2018. Группа A. Россия – Швеция (15.05.2018) WEB-DL [H.264/720p-LQ]
    Рейтинг →
     (голосов: 1, оценка 5/5, голосовать можно 1 раз )

    Другие торренты по теме:

  • Хоккей. Чемпионат мира-2015 (Группа В. 1 тур. Россия - Норвегия) (2015.05.01) HDTVRip скачать через торрент бесплатно
  • Хоккей. Чемпионат мира-2015 (Группа B. 2 тур. Россия - Словения ) (2015.05.03) HDTVRip скачать через торрент бесплатно
  • Хоккей. Чемпионат мира-2015 (Группа B. 3 тур. Россия - США) (2015.05.04) HDTVRip скачать через торрент бесплатно
  • Хоккей. Чемпионат мира-2015 (Группа B. 6 тур. Россия - Словакия ) (2015.05.10) HDTVRip скачать через торрент бесплатно
  • Хоккей. Чемпионат мира-2015 (1.4 финала. Россия-Швеция) (2015.05.14) HDTVRip скачать через торрент бесплатно
  • Хоккей. Чемпионат мира-2015 (Полуфинал. Россия-США) (2015.05.16) HDTVRip [H.264 / 720p] скачать через торрент бесплатно
  • Хоккей. Чемпионат мира-2015 (Полуфинал. Россия-США) (2015.05.16) HDTVRip скачать через торрент бесплатно
  • Хоккей. Чемпионат мира-2015 (Финал. Россия-Канада) (2015.05.17) HDTVRip скачать через торрент бесплатно


    • Комментарии (0):

      Информация

      Информация

        Посетители, находящиеся в группе Гости, не могут оставлять комментарии в данной новости.

        ↓ Меню




        ↓ Опрос

        Вы добавили сайт в закладки?
        Да
        Нет


        Top 10 за месяц (Передачи)