.
Авторизация | Регистрация
Хочешь лучшие торренты? Добавь свой email!
Добавить

Торрент скачать бесплатно

  • support: webmaster@btracker.org
» » Баскетбол. Кубок Европы ФИБА 2017-2018. Женщины. Финал. 2-й матч. Умана Рейер (Италия) — Галатасарай (Турция) (2018) WEB-DLRip [H.264 / 720p-LQ] [hand made 50fps] [EN] торрент скачать бесплатно


    Баскетбол. Кубок Европы ФИБА 2017-2018. Женщины. Финал. 2-й матч. Умана Рейер (Италия) — Галатасарай (Турция) (2018) WEB-DLRip [H.264 / 720p-LQ] [hand made 50fps] [EN] торрент скачать бесплатно

    Опубликовал: Админ | Дата: 24-05-2018, 05:00 | .torrent скачали: 0

    Баскетбол. Кубок Европы ФИБА 2017-2018. Женщины. Финал. 2-й матч. Умана Рейер (Италия) — Галатасарай (Турция) (2018) WEB-DLRip [H.264 / 720p-LQ] [hand made 50fps] [EN]Телекомпания: FIBA TV
    Жанр: Спорт

    Описание
    18 апреля 2018 года
    Финальная серия Кубка Европы ФИБА среди женщин сезон любимого сериалаа 2017-2018
    2-й матч.
    Умана Рейер (Венеция, Италия) — Галатасарай (Стамбул, Турция)
    Стадион: Паласпорт Джузеппе Талиерко (Венеция, Италия)
    Судьи: Андрис Акерггерс (Латвия), Януш Калик (Польша), Борис Крейч (Словения)
    Продолжительность: 01: 51: 05
    Качество видео: WEB-DLRip
    Язык озвучки: Английский
    Субтитры: отсутствуют
    Видео: AVC/H.264, 1280x720 (16: 9), ~2497 Kbps, 50 fps
    Аудио: AAC, 2 ch, 48 kHz, 64, 7 Kbps

    Общее
    Уникальный идентификатор : 823566736917756761786017165956174556 (0x9E9CF9A021EDA072D33630E9F152DC)
    Полное имя : F: SPORTБаскетболЕврокубок 2017-2018FIBA EuroCup Women 17-18.Final.2leg. Reyer Venezia(ITA)-Galatasaray(TUR).mkv
    Формат : Matroska
    Версия формата : Version 4/Version 2
    Размер файла : 1, 99 Гбайт
    Продолжительность : 1 ч. 51 м.
    Общий поток : 2568 Кбит/сек
    Дата кодирования : UTC 2018-05-07 18: 17: 09
    Программа кодирования : mkvmerge v23.0.0 (\'The Bride Said No\') 32-bit
    Библиотека кодирования : libebml v1.3.6 + libmatroska v1.4.9
    Видео
    Идентификатор : 1
    Формат : AVC
    Формат/Информация : Advanced Video Codec
    Профиль формата : High@L3.2
    Настройки формата : 5 Ref Frames
    Параметр CABAC формата : Нет
    Параметр RefFrames формата : 5 кадров
    Идентификатор кодека : V_MPEG4/ISO/AVC
    Продолжительность : 1 ч. 51 м.
    Битрейт : 2497 Кбит/сек
    Ширина : 1280 пикселей
    Высота : 720 пикселей
    Соотношение сторон : 16: 9
    Режим частоты кадров : Постоянный
    Частота кадров : 50, 000 кадров/сек
    Цветовое пространство : YUV
    Субдискретизация насыщенности : 4: 2: 0
    Битовая глубина : 8 бит
    Тип развёртки : Прогрессивная
    Бит/(Пиксели*Кадры) : 0.054
    Размер потока : 1, 94 Гбайт (97%)
    Default : Да
    Forced : Нет
    Аудио
    Идентификатор : 2
    Формат : AAC
    Формат/Информация : Advanced Audio Codec
    Профиль формата : LC
    Идентификатор кодека : A_AAC-2
    Продолжительность : 1 ч. 51 м.
    Битрейт : 64, 7 Кбит/сек
    Каналы : 2 канала
    Расположение каналов : Front: L R
    Частота : 48, 0 КГц
    Частота кадров : 46, 875 кадров/сек (1024 SPF)
    Метод сжатия : С потерями
    Размер потока : 51, 4 Мбайт (3%)
    Язык : English
    Default : Да
    Forced : Нет

    Скриншоты для ознакомления



    Все одноименные релизы в Клубе
    Время раздачи: 24/7 (около 1 месяца)


    Баскетбол. Кубок Европы ФИБА 2017-2018. Женщины. Финал. 2-й матч. Умана Рейер (Италия) — Галатасарай (Турция) (2018) WEB-DLRip [H.264/720p-LQ] [hand made 50fps] [EN]
    Рейтинг →
     (голосов: 1, оценка 3/5, голосовать можно 1 раз )

    Другие торренты по теме:

  • Баскетбол. Кубок Европы 2016-2017. Группа D. 1-й тур. Олимпия (Словения) - Локомотив-Кубань (Россия) (12.10.2016) HDTVRip [H.264 / 720p-LQ][hand made 50fps]
  • Баскетбол. Кубок Европы 2016-2017. Группа B. 1-й тур. Альба (Германия) - Фуэнлабрада (Испания) (12.10.2016) HDTVRip [H.264 / 720p-LQ][hand made 50fps]
  • Баскетбол. Кубок Европы 2016-2017. Группа B. 1-й тур. Химки (Россия) - Летувос Ритас (Литва) (12.10.2016) WEB-DL [H.264 / 720p-LQ]
  • Баскетбол. Кубок Европы 2016-2017. Группа B. 2-й тур. Фуэнлабрада (Испания) — Химки (Россия) (19.10.2016) HDTVRip [H.264 / 720p-LQ][hand made 50fps]
  • Баскетбол. Кубок Европы 2016-2017. Группа A. 2-й тур. Нижний Новгород (Россия) - Гран Канария (Испания) (18.10.2016) WEB-DLRip [H.264 / 720p-LQ]
  • Баскетбол. Кубок Европы 2016-2017. Группа B. 3-й тур. Альба (Германия) - Химки (Россия) (26.10.2016) HDTVRip [H.264 / 720p-LQ][hand made 50fps]
  • Баскетбол. Кубок Европы 2016-2017. Группа D. 3-й тур. Локомотив-Кубань (Россия) - Ратиофарм Ульм (Германия) (26.10.2016) WEB-DLR [H.264 / 576p-LQ]
  • Баскетбол. Кубок Европы 2016-2017. Группа A. 4-й тур. Нижний Новгород (Россия) — МЗТ Скопье (Македония) (02.11.2016) WEBRip [H.264 / 576]


    • Комментарии (0):

      Информация

      Информация

        Посетители, находящиеся в группе Гости, не могут оставлять комментарии в данной новости.

        ↓ Меню




        ↓ Опрос

        Вы добавили сайт в закладки?
        Да
        Нет


        Top 10 за месяц (Передачи)