.
Авторизация | Регистрация
Хочешь лучшие торренты? Добавь свой email!
Добавить

Торрент скачать бесплатно

  • support: webmaster@btracker.org
» » Однажды в России (2018.05.16) WEB-DLRip (сезон 7, выпуск 9) торрент скачать бесплатно


    Однажды в России (2018.05.16) WEB-DLRip (сезон 7, выпуск 9) торрент скачать бесплатно

    Опубликовал: Админ | Дата: 17-05-2018, 05:00 | .torrent скачали: 67

    Однажды в России (2018.05.16) WEB-DLRip (сезон 7, выпуск 9)Телекомпания: ТНТ
    Жанр: Юмористическое тв-шоу

    Актеры
    Азамат Мусагалиев, Игорь Ласточкин, Ирина Чеснокова, Тимур Тания, Ольга Картункова, Александр Пташенчук, Максим Киселёв, Денис Дорохов, Заур Байцаев, Давид Цаллаев и др.

    Описание

    Россия - богатейшая страна, в которой много нефти, газа и проблем. ТВ-Шоу на ТНТ Однажды в России не решает ни одной из них. Оно над ними смеется. Участники шоу разыгрывают скетчи на сцене перед зрителями. Их снимают камеры. Это шоу - реальное театральное действие, совмещенное с кинопроизводством.

    Возраст: 16+ (зрителям, достигшим 16 лет)
    Релиз от: Алехаndr
    Продолжительность: 00: 48: 42
    Качество видео: WEB-DLRip
    Субтитры: Отсутствуют
    Видео: Xvid, 720x400 (16: 9), ~1810 Kbps
    Аудио: AC3, 2 ch, 192 Kbps

    Общее
    Полное имя : D: Однажды в России (16.05.2018).by.Алехаndr.avi
    Формат : AVI
    Формат/Информация : Audio Video Interleave
    Размер файла : 701 Мбайт
    Продолжительность : 48 м. 42 с.
    Общий поток : 2013 Кбит/сек
    Программа кодирования : Lavf57.41.100
    Видео
    Идентификатор : 0
    Формат : xvid
    Идентификатор кодека : xvid
    Продолжительность : 48 м. 42 с.
    Битрейт : 1810 Кбит/сек
    Ширина : 720 пикселей
    Высота : 400 пикселей
    Соотношение сторон : 16: 9
    Частота кадров : 25, 000 кадров/сек
    Тип развёртки : Прогрессивная
    Бит/(Пиксели*Кадры) : 0.251
    Размер потока : 630 Мбайт (90%)
    Аудио
    Идентификатор : 1
    Формат : AC-3
    Формат/Информация : Audio Coding 3
    Идентификатор кодека : 2000
    Продолжительность : 48 м. 42 с.
    Вид битрейта : Постоянный
    Битрейт : 192 Кбит/сек
    Каналы : 2 канала
    Расположение каналов : Front: L R
    Частота : 48, 0 КГц
    Частота кадров : 31, 250 кадров/сек (1536 SPF)
    Битовая глубина : 16 бит
    Метод сжатия : С потерями
    Размер потока : 66, 9 Мбайт (10%)
    Выравнивание : Соединение по промежуткам
    Продолжительность промежутка : 32 мс. (0, 80 видеокадр)
    ServiceKind/String : Complete Main

    Скриншоты для ознакомления



    Все одноименные релизы в Клубе
    Время раздачи: 24/7 (круглосуточно) (до появления первых 3-5 скачавших)


    Однажды в России (2018.05.16) WEB-DLRip (сезон 7, выпуск 9)
    Рейтинг →
     (голосов: 1, оценка 4/5, голосовать можно 1 раз )

    Другие торренты по теме:

  • Однажды в России. Выпуск 1 (2014.09.28) SATRip
  • Однажды в России. Выпуск 2 (2014.10.05) SATRip скачать через торрент бесплатно
  • Однажды в России. Выпуск 2 (2014.10.05) WEB-DL [H.264 / 720p-LQ] [hand made 50fps] скачать через торрент бесплатно
  • Однажды в России. Выпуск 1 (2014.09.28) WEB-DL [H.264 / 720p-LQ] [hand made 50fps] скачать через торрент бесплатно
  • Однажды в России. Выпуск 3 (2014.10.12) WEB-DL [H.264 / 720p] [hand made 50fps]
  • Однажды в России. Выпуск 3 (2014.10.12) WEB-DLRip
  • Однажды в России. Выпуск 3 (2014.10.12) SATRip скачать через торрент бесплатно
  • Однажды в России. Выпуск 4 (2014.10.19) WEB-DLRip скачать через торрент бесплатно


    • Комментарии (0):

      Информация

      Информация

        Посетители, находящиеся в группе Гости, не могут оставлять комментарии в данной новости.

        ↓ Меню




        ↓ Опрос

        Вы добавили сайт в закладки?
        Да
        Нет


        Top 10 за месяц (Передачи)