.
Авторизация | Регистрация
Хочешь лучшие торренты? Добавь свой email!
Добавить

Торрент скачать бесплатно

» » Нонна Мордюкова. Прости меня за любовь (2018) DVB [H.264 / 1080i-LQ] торрент скачать бесплатно


    Нонна Мордюкова. Прости меня за любовь (2018) DVB [H.264 / 1080i-LQ] торрент скачать бесплатно

    Опубликовал: Админ | Дата: 4-04-2018, 05:00 | .torrent скачали: 0

    Нонна Мордюкова. Прости меня за любовь (2018) DVB [H.264 / 1080i-LQ]Телекомпания: Россия/Первый канал
    Жанр: Документальный, Биография, Искусство
    Участники: Нонна Мордюкова (архив), Вячеслав Тихонов (архив), Римма Маркова, актриса (архив), Людмила Мордюкова — сестра Нонны Мордюковой, Наталья Мордюкова — сестра Нонны Мордюковой, Анна Тихонова — дочь Вячеслава Тихонова, Наталья Варлей — актриса, Елена Санаева — актриса, Никита Михалков — кинорежиссер, Нина Гребешкова — актриса, Инна Макарова — актриса, Виктор Мережко — сценарист, кинорежиссер, Светлана Крючкова — актриса

    Описание

    Знаменитой и любимой миллионами актрисе Нонне Мордюковой была по плечу любая роль! Но в жизни ей так и не удались самые главные для женщины роли: счастливой жены и матери. Актриса признавалась, что Вячеслав Тихонов был самой большой ее любовью. Почему же они расстались? Кто был виноват? Как они переживали свой развод? И почему столь трагичной была судьба их общего единственного сына?

    Продолжительность: 00: 49: 47
    Качество видео: DVB 1080i
    Субтитры: Русский, teletext (888)
    Видео: AVC/H.264, 1920 х 1080, ~6929 kb/s
    Аудио #1: MP2, 48 kHz, 2 ch, 224 kbps
    Аудио #2: АС-3, 48 kHz, 6 ch, 384 kbps

    Общее
    Идентификатор : 16 (0x10)
    Полное имя : Нонна Мордюкова_Прости меня за любовь_HD.ts
    Формат : MPEG-TS
    Размер файла : 2, 76 Гбайт
    Продолжительность : 49 м. 47 с.
    Режим общего битрейта : Переменный
    Общий поток : 7935 Кбит/сек
    Видео
    Идентификатор : 1902 (0x76E)
    Идентификатор меню : 92 (0x5C)
    Формат : AVC
    Формат/Информация : Advanced Video Codec
    Профиль формата : High@L4
    Настройки формата : CABAC/3 Ref Frames
    Параметр CABAC формата : Да
    Параметр RefFrames формата : 3 кадра
    Идентификатор кодека : 27
    Продолжительность : 49 м. 47 с.
    Битрейт : 6929 Кбит/сек
    Ширина : 1920 пикселей
    Высота : 1080 пикселей
    Соотношение сторон : 16: 9
    Частота кадров : 25, 000 кадров/сек
    Стандарт вещания : PAL
    Цветовое пространство : YUV
    Субдискретизация насыщенности : 4: 2: 0
    Битовая глубина : 8 бит
    Тип развёртки : Чересстрочная
    Метод сохранения типа развёртки : Раздельные поля
    Порядок развёртки : Верхнее поле первое
    Бит/(Пиксели*Кадры) : 0.134
    Размер потока : 2, 41 Гбайт (87%)
    Цветовой диапазон : Limited
    Основные цвета : BT.709
    Характеристики трансфера : BT.709
    Коэффициенты матрицы : BT.709
    Аудио #1
    Идентификатор : 2902 (0xB56)
    Идентификатор меню : 92 (0x5C)
    Формат : MPEG Audio
    Версия формата : Version 1
    Профиль формата : Layer 2
    Идентификатор кодека : 4
    Продолжительность : 49 м. 47 с.
    Вид битрейта : Постоянный
    Битрейт : 224 Кбит/сек
    Каналы : 2 канала
    Частота : 48, 0 КГц
    Метод сжатия : С потерями
    Задержка видео : 60 мс.
    Размер потока : 79, 8 Мбайт (3%)
    Язык : std
    Язык, дополнительно : Clean effects
    Аудио #2
    Идентификатор : 3902 (0xF3E)
    Идентификатор меню : 92 (0x5C)
    Формат : AC-3
    Формат/Информация : Audio Coding 3
    Параметр Endianness формата : Big
    Идентификатор кодека : 6
    Продолжительность : 49 м. 47 с.
    Вид битрейта : Постоянный
    Битрейт : 384 Кбит/сек
    Каналы : 6 каналов
    Расположение каналов : Front: L C R, Side: L R, LFE
    Частота : 48, 0 КГц
    Частота кадров : 31, 250 кадров/сек (1536 SPF)
    Битовая глубина : 16 бит
    Метод сжатия : С потерями
    Задержка видео : 29 мс.
    Размер потока : 137 Мбайт (5%)
    Язык : std
    Язык, дополнительно : Clean effects
    ServiceKind/String : Complete Main
    Прочее #1
    Идентификатор : 33 (0x21)-100
    Идентификатор меню : 92 (0x5C)
    Формат : Teletext
    Прочее #2
    Идентификатор : 33 (0x21)-888
    Идентификатор меню : 92 (0x5C)
    Формат : Teletext
    Язык, дополнительно : Additional information page


    Нонна Мордюкова. Прости меня за любовь (2018) DVB [H.264/1080i-LQ]
    Рейтинг →
     (голосов: 1, оценка 5/5, голосовать можно 1 раз )

    Другие торренты по теме:

  • Нонна Мордюкова. Прости меня за любовь (2018) SATRip


    • Комментарии (0):

      Информация

      Информация

        Посетители, находящиеся в группе Гости, не могут оставлять комментарии в данной новости.

        ↓ Меню




        ↓ Опрос

        Вы добавили сайт в закладки?
        Да
        Нет


        Top 10 за месяц (Передачи)