.
Авторизация | Регистрация
Хочешь лучшие торренты? Добавь свой email!
Добавить

Торрент скачать бесплатно

» » «Есть только миг». Памяти Олега Анофриева. Юбилейный вечер к 80-летию артиста (2010) DVB [H.264 / 1080i-LQ] торрент скачать бесплатно


    «Есть только миг». Памяти Олега Анофриева. Юбилейный вечер к 80-летию артиста (2010) DVB [H.264 / 1080i-LQ] торрент скачать бесплатно

    Опубликовал: Админ | Дата: 4-04-2018, 05:00 | .torrent скачали: 1

    «Есть только миг». Памяти Олега Анофриева. Юбилейный вечер к 80-летию артиста (2010) DVB [H.264 / 1080i-LQ]Телекомпания: Россия/ТК Останкино
    Жанр: Документальный, Искусство
    Участники: Олег Анофриев, Лариса Долина, Дмитрий Харатьян, Сергей Мазаев

    Описание

    Памяти легендарного артиста Олега Анофриева — Первый канал представляет торжественный вечер, посвященный 80-летию артиста, съемки которого прошли в июне 2010 года в концертном зале Останкино. В телестудии Останкино прошли съемки торжественного вечера к юбилею создателя легендарных киношлягеров Есть только миг между прошлым и будущим…, И солнце всходило, и радуга цвела…, исполнителя песен бременских музыкантов, львенка и черепахи. Ведущей вечера на Первом канале стала Татьяна Веденеева. Поздравить Анофриева пришли Александр Ф. Скляр, Лариса Долина, Дмитрий Харатьян, Сергей Мазаев и другие популярные артисты

    Продолжительность: 01: 31: 22
    Качество видео: DVB 1080i
    Субтитры: Русский, teletext (888)
    Видео: AVC/H.264, 1920 х 1080, ~6472 kb/s
    Аудио #1: MP2, 48 kHz, 2 ch, 224 kbps
    Аудио #2: АС-3, 48 kHz, 6 ch, 384 kbps

    Общее
    Идентификатор : 16 (0x10)
    Полное имя : Есть только миг_В гостях у Олега Анофриева_HD.ts
    Формат : MPEG-TS
    Размер файла : 4, 76 Гбайт
    Продолжительность : 1 ч. 31 м.
    Режим общего битрейта : Переменный
    Общий поток : 7454 Кбит/сек
    Видео
    Идентификатор : 1902 (0x76E)
    Идентификатор меню : 92 (0x5C)
    Формат : AVC
    Формат/Информация : Advanced Video Codec
    Профиль формата : High@L4
    Настройки формата : CABAC/3 Ref Frames
    Параметр CABAC формата : Да
    Параметр RefFrames формата : 3 кадра
    Параметр GOP формата : M=4, N=32
    Идентификатор кодека : 27
    Продолжительность : 1 ч. 31 м.
    Битрейт : 6472 Кбит/сек
    Ширина : 1920 пикселей
    Высота : 1080 пикселей
    Соотношение сторон : 16: 9
    Частота кадров : 25, 000 кадров/сек
    Стандарт вещания : PAL
    Цветовое пространство : YUV
    Субдискретизация насыщенности : 4: 2: 0
    Битовая глубина : 8 бит
    Тип развёртки : Чересстрочная
    Метод сохранения типа развёртки : Раздельные поля
    Порядок развёртки : Верхнее поле первое
    Бит/(Пиксели*Кадры) : 0.125
    Размер потока : 4, 13 Гбайт (87%)
    Цветовой диапазон : Limited
    Основные цвета : BT.709
    Характеристики трансфера : BT.709
    Коэффициенты матрицы : BT.709
    Аудио #1
    Идентификатор : 2902 (0xB56)
    Идентификатор меню : 92 (0x5C)
    Формат : MPEG Audio
    Версия формата : Version 1
    Профиль формата : Layer 2
    Идентификатор кодека : 4
    Продолжительность : 1 ч. 31 м.
    Вид битрейта : Постоянный
    Битрейт : 224 Кбит/сек
    Каналы : 2 канала
    Частота : 48, 0 КГц
    Метод сжатия : С потерями
    Задержка видео : 92 мс.
    Размер потока : 146 Мбайт (3%)
    Язык : std
    Язык, дополнительно : Clean effects
    Аудио #2
    Идентификатор : 3902 (0xF3E)
    Идентификатор меню : 92 (0x5C)
    Формат : AC-3
    Формат/Информация : Audio Coding 3
    Параметр Endianness формата : Big
    Идентификатор кодека : 6
    Продолжительность : 1 ч. 31 м.
    Вид битрейта : Постоянный
    Битрейт : 384 Кбит/сек
    Каналы : 6 каналов
    Расположение каналов : Front: L C R, Side: L R, LFE
    Частота : 48, 0 КГц
    Частота кадров : 31, 250 кадров/сек (1536 SPF)
    Битовая глубина : 16 бит
    Метод сжатия : С потерями
    Задержка видео : 29 мс.
    Размер потока : 251 Мбайт (5%)
    Язык : std
    Язык, дополнительно : Clean effects
    ServiceKind/String : Complete Main
    Прочее #1
    Идентификатор : 33 (0x21)-100
    Идентификатор меню : 92 (0x5C)
    Формат : Teletext
    Прочее #2
    Идентификатор : 33 (0x21)-888
    Идентификатор меню : 92 (0x5C)
    Формат : Teletext
    Язык, дополнительно : Additional information page

    Скриншоты для ознакомления



    Все одноименные релизы в Клубе
    Время раздачи: Сб-Вс с 09: 00 до 23: 30 (до появления первых 3-5 скачавших)


    «Есть только миг». Памяти Олега Анофриева. Юбилейный вечер к 80-летию артиста (2010) DVB [H.264/1080i-LQ]
    Рейтинг →
     (голосов: 1, оценка 3/5, голосовать можно 1 раз )

    Другие торренты по теме:

  • Йоси Гинсберг | Джунгли. В природе есть только один закон – выживание (2018) [FB2]


    • Комментарии (0):

      Информация

      Информация

        Посетители, находящиеся в группе Гости, не могут оставлять комментарии в данной новости.

        ↓ Меню




        ↓ Опрос

        Вы добавили сайт в закладки?
        Да
        Нет


        Top 10 за месяц (Передачи)