.
Авторизация | Регистрация
Хочешь лучшие торренты? Добавь свой email!
Добавить

Торрент скачать бесплатно

  • support: webmaster@btracker.org
» » Мартиросян Official (2018.04.01) HDTV [H.264 / 1080p-LQ] торрент скачать бесплатно


    Мартиросян Official (2018.04.01) HDTV [H.264 / 1080p-LQ] торрент скачать бесплатно

    Опубликовал: Админ | Дата: 3-04-2018, 05:00 | .torrent скачали: 0

    Мартиросян Official (2018.04.01) HDTV [H.264 / 1080p-LQ]Телекомпания: ТНТ HD
    Жанр: Юмор
    Участники: Егор Крид, Гарик Харламов, Семен Слепаков, Джиган, Федор Бондарчук, Полина Попова

    Описание

    Мартиросян Official. Праздничный концерт 01.04.2018 последний выпуск. Пока еще холостой Егор Крид о своем статусе ничего существенного не расскажет. Шестой Холостяк в самом разгаре и роз в арсенале Крида еще предостаточно. Гарик остановится на творчестве певца и подробно разберет тексты его песен. В рамках шоу Гарик будет делать то, чего лучше всего умеет — смешить. Он расшифрует самые странные аббревиатуры, станет говорить задом наперед и будет постоянно врать. Шоу-концерт ко всемирному празднику – Дню смеха или Дню Дураков – кому что ближе. Ведущий Гарик Мартиросян и его звездные гости сделают так, чтобы смех зрителей ТНТ в этот день был слышен даже за рулем Tesla, что болтается в бескрайнем космосе.
    Релиз от: Pusher_2010
    Продолжительность: 00: 45: 17
    Качество видео: HDTV
    Субтитры: Отсутствуют
    Видео: AVC/H.264, 1920x1080 (16: 9), 25.000 fps, 5682 kbps
    Аудио: AAC, 2 ch, 132 Kbps

    Полное имя : H: Мартиросян.Official (2018.04.01)_1080.mkv
    Формат : Matroska
    Версия формата : Version 4/Version 2
    Размер файла : 1, 84 Гбайт
    Продолжительность : 45 м. 16 с.
    Общий поток : 5817 Кбит/сек
    Дата кодирования : UTC 2018-04-01 20: 36: 10
    Программа кодирования : mkvmerge v21.0.0 (\'Tardigrades Will Inherit The Earth\') 64-bit
    Библиотека кодирования : libebml v1.3.5 + libmatroska v1.4.8
    Видео
    Идентификатор : 2
    Формат : AVC
    Формат/Информация : Advanced Video Codec
    Профиль формата : High@L3.1
    Настройки формата : CABAC/2 Ref Frames
    Параметр CABAC формата : Да
    Параметр RefFrames формата : 2 кадра
    Идентификатор кодека : V_MPEG4/ISO/AVC
    Продолжительность : 45 м. 16 с.
    Битрейт : 5682 Кбит/сек
    Ширина : 1920 пикселей
    Высота : 1080 пикселей
    Соотношение сторон : 16: 9
    Режим частоты кадров : Постоянный
    Частота кадров : 25, 000 кадров/сек
    Цветовое пространство : YUV
    Субдискретизация насыщенности : 4: 2: 0
    Битовая глубина : 8 бит
    Тип развёртки : Прогрессивная
    Бит/(Пиксели*Кадры) : 0.110
    Размер потока : 1, 80 Гбайт (98%)
    Default : Да
    Forced : Нет
    Аудио
    Идентификатор : 1
    Формат : AAC
    Формат/Информация : Advanced Audio Codec
    Профиль формата : LC
    Идентификатор кодека : A_AAC-2
    Продолжительность : 45 м. 16 с.
    Битрейт : 132 Кбит/сек
    Каналы : 2 канала
    Расположение каналов : Front: L R
    Частота : 48, 0 КГц
    Частота кадров : 46, 875 кадров/сек (1024 SPF)
    Метод сжатия : С потерями
    Задержка видео : 13 мс.
    Размер потока : 42, 7 Мбайт (2%)
    Default : Да
    Forced : Нет

    Скриншоты для ознакомления



    Все одноименные релизы в Клубе
    Время раздачи: с 8-00 до 20-00 (до появления первых 3-5 скачавших)


    Мартиросян Official (2018.04.01) HDTV [H.264/1080p-LQ]
    Рейтинг →
     (голосов: 1, оценка 5/5, голосовать можно 1 раз )

    Другие торренты по теме:



      Комментарии (0):

      Информация

      Информация

        Посетители, находящиеся в группе Гости, не могут оставлять комментарии в данной новости.

        ↓ Меню




        ↓ Опрос

        Вы добавили сайт в закладки?
        Да
        Нет


        Top 10 за месяц (Передачи)